  0
SECTION
  2
HEADER
  9
$ACADVER
  1
AC1024
  9
$ACADMAINTVER
 70
   226
  9
$DWGCODEPAGE
  3
ANSI_1252
  9
$LASTSAVEDBY
  1
marco
  9
$INSBASE
 10
0.0
 20
0.0
 30
0.0
  9
$EXTMIN
 10
-1.108959464580618
 20
-1.804447288738259
 30
0.0
  9
$EXTMAX
 10
45.66917493445572
 20
14.41
 30
0.0
  9
$LIMMIN
 10
0.0
 20
0.0
  9
$LIMMAX
 10
12.0
 20
9.0
  9
$ORTHOMODE
 70
     1
  9
$REGENMODE
 70
     1
  9
$FILLMODE
 70
     0
  9
$QTEXTMODE
 70
     0
  9
$MIRRTEXT
 70
     1
  9
$LTSCALE
 40
1.0
  9
$ATTMODE
 70
     1
  9
$TEXTSIZE
 40
0.2
  9
$TRACEWID
 40
0.3
  9
$TEXTSTYLE
  7
STANDARD
  9
$CLAYER
  8
DIMENSION
  9
$CELTYPE
  6
ByLayer
  9
$CECOLOR
 62
   256
  9
$CELTSCALE
 40
1.0
  9
$DISPSILH
 70
     0
  9
$DIMSCALE
 40
1.0
  9
$DIMASZ
 40
0.18
  9
$DIMEXO
 40
0.0625
  9
$DIMDLI
 40
0.38
  9
$DIMRND
 40
0.0
  9
$DIMDLE
 40
0.0
  9
$DIMEXE
 40
0.18
  9
$DIMTP
 40
0.0
  9
$DIMTM
 40
0.0
  9
$DIMTXT
 40
0.18
  9
$DIMCEN
 40
0.09
  9
$DIMTSZ
 40
0.0
  9
$DIMTOL
 70
     0
  9
$DIMLIM
 70
     0
  9
$DIMTIH
 70
     1
  9
$DIMTOH
 70
     1
  9
$DIMSE1
 70
     0
  9
$DIMSE2
 70
     0
  9
$DIMTAD
 70
     0
  9
$DIMZIN
 70
     0
  9
$DIMBLK
  1

  9
$DIMASO
 70
     1
  9
$DIMSHO
 70
     1
  9
$DIMPOST
  1

  9
$DIMAPOST
  1

  9
$DIMALT
 70
     0
  9
$DIMALTD
 70
     2
  9
$DIMALTF
 40
25.4
  9
$DIMLFAC
 40
1.0
  9
$DIMTOFL
 70
     0
  9
$DIMTVP
 40
0.0
  9
$DIMTIX
 70
     0
  9
$DIMSOXD
 70
     0
  9
$DIMSAH
 70
     0
  9
$DIMBLK1
  1

  9
$DIMBLK2
  1

  9
$DIMSTYLE
  2
Standard
  9
$DIMCLRD
 70
     0
  9
$DIMCLRE
 70
     0
  9
$DIMCLRT
 70
     0
  9
$DIMTFAC
 40
1.0
  9
$DIMGAP
 40
0.09
  9
$DIMJUST
 70
     0
  9
$DIMSD1
 70
     0
  9
$DIMSD2
 70
     0
  9
$DIMTOLJ
 70
     1
  9
$DIMTZIN
 70
     0
  9
$DIMALTZ
 70
     0
  9
$DIMALTTZ
 70
     0
  9
$DIMUPT
 70
     0
  9
$DIMDEC
 70
     1
  9
$DIMTDEC
 70
     4
  9
$DIMALTU
 70
     2
  9
$DIMALTTD
 70
     2
  9
$DIMTXSTY
  7
STANDARD
  9
$DIMAUNIT
 70
     0
  9
$DIMADEC
 70
     0
  9
$DIMALTRND
 40
0.0
  9
$DIMAZIN
 70
     0
  9
$DIMDSEP
 70
    46
  9
$DIMATFIT
 70
     3
  9
$DIMFRAC
 70
     0
  9
$DIMLDRBLK
  1

  9
$DIMLUNIT
 70
     2
  9
$DIMLWD
 70
    -2
  9
$DIMLWE
 70
    -2
  9
$DIMTMOVE
 70
     2
  9
$DIMFXL
 40
1.0
  9
$DIMFXLON
 70
     0
  9
$DIMJOGANG
 40
0.7853981633974483
  9
$DIMTFILL
 70
     0
  9
$DIMTFILLCLR
 70
     0
  9
$DIMARCSYM
 70
     0
  9
$DIMLTYPE
  6

  9
$DIMLTEX1
  6

  9
$DIMLTEX2
  6

  9
$DIMTXTDIRECTION
 70
     0
  9
$LUNITS
 70
     2
  9
$LUPREC
 70
     1
  9
$SKETCHINC
 40
0.5
  9
$FILLETRAD
 40
0.0
  9
$AUNITS
 70
     0
  9
$AUPREC
 70
     0
  9
$MENU
  1
.
  9
$ELEVATION
 40
0.0
  9
$PELEVATION
 40
0.0
  9
$THICKNESS
 40
0.0
  9
$LIMCHECK
 70
     0
  9
$CHAMFERA
 40
0.0
  9
$CHAMFERB
 40
0.0
  9
$CHAMFERC
 40
1.0
  9
$CHAMFERD
 40
0.0
  9
$SKPOLY
 70
     0
  9
$TDCREATE
 40
2454462.464479167
  9
$TDUCREATE
 40
2454462.422816632
  9
$TDUPDATE
 40
2460767.583750000
  9
$TDUUPDATE
 40
2460767.500416667
  9
$TDINDWG
 40
0.4026176620
  9
$TDUSRTIMER
 40
2458548.603125463
  9
$USRTIMER
 70
     1
  9
$ANGBASE
 50
0.0
  9
$ANGDIR
 70
     0
  9
$PDMODE
 70
     0
  9
$PDSIZE
 40
0.0
  9
$PLINEWID
 40
0.0
  9
$SPLFRAME
 70
     0
  9
$SPLINETYPE
 70
     6
  9
$SPLINESEGS
 70
     8
  9
$HANDSEED
  5
C2B
  9
$SURFTAB1
 70
     6
  9
$SURFTAB2
 70
     6
  9
$SURFTYPE
 70
     6
  9
$SURFU
 70
     6
  9
$SURFV
 70
     6
  9
$UCSBASE
  2

  9
$UCSNAME
  2

  9
$UCSORG
 10
0.0
 20
0.0
 30
0.0
  9
$UCSXDIR
 10
1.0
 20
0.0
 30
0.0
  9
$UCSYDIR
 10
0.0
 20
1.0
 30
0.0
  9
$UCSORTHOREF
  2

  9
$UCSORTHOVIEW
 70
     0
  9
$UCSORGTOP
 10
0.0
 20
0.0
 30
0.0
  9
$UCSORGBOTTOM
 10
0.0
 20
0.0
 30
0.0
  9
$UCSORGLEFT
 10
0.0
 20
0.0
 30
0.0
  9
$UCSORGRIGHT
 10
0.0
 20
0.0
 30
0.0
  9
$UCSORGFRONT
 10
0.0
 20
0.0
 30
0.0
  9
$UCSORGBACK
 10
0.0
 20
0.0
 30
0.0
  9
$PUCSBASE
  2

  9
$PUCSNAME
  2

  9
$PUCSORG
 10
0.0
 20
0.0
 30
0.0
  9
$PUCSXDIR
 10
1.0
 20
0.0
 30
0.0
  9
$PUCSYDIR
 10
0.0
 20
1.0
 30
0.0
  9
$PUCSORTHOREF
  2

  9
$PUCSORTHOVIEW
 70
     0
  9
$PUCSORGTOP
 10
0.0
 20
0.0
 30
0.0
  9
$PUCSORGBOTTOM
 10
0.0
 20
0.0
 30
0.0
  9
$PUCSORGLEFT
 10
0.0
 20
0.0
 30
0.0
  9
$PUCSORGRIGHT
 10
0.0
 20
0.0
 30
0.0
  9
$PUCSORGFRONT
 10
0.0
 20
0.0
 30
0.0
  9
$PUCSORGBACK
 10
0.0
 20
0.0
 30
0.0
  9
$USERI1
 70
     0
  9
$USERI2
 70
     0
  9
$USERI3
 70
     0
  9
$USERI4
 70
     0
  9
$USERI5
 70
     0
  9
$USERR1
 40
0.0
  9
$USERR2
 40
0.0
  9
$USERR3
 40
0.0
  9
$USERR4
 40
0.0
  9
$USERR5
 40
0.0
  9
$WORLDVIEW
 70
     1
  9
$SHADEDGE
 70
     3
  9
$SHADEDIF
 70
    70
  9
$TILEMODE
 70
     1
  9
$MAXACTVP
 70
    64
  9
$PINSBASE
 10
0.0
 20
0.0
 30
0.0
  9
$PLIMCHECK
 70
     0
  9
$PEXTMIN
 10
1.000000000000000E+20
 20
1.000000000000000E+20
 30
1.000000000000000E+20
  9
$PEXTMAX
 10
-1.000000000000000E+20
 20
-1.000000000000000E+20
 30
-1.000000000000000E+20
  9
$PLIMMIN
 10
-20.0
 20
-7.5
  9
$PLIMMAX
 10
277.0
 20
202.5
  9
$UNITMODE
 70
     0
  9
$VISRETAIN
 70
     1
  9
$PLINEGEN
 70
     0
  9
$PSLTSCALE
 70
     0
  9
$TREEDEPTH
 70
  3020
  9
$CMLSTYLE
  2
Standard
  9
$CMLJUST
 70
     0
  9
$CMLSCALE
 40
1.0
  9
$PROXYGRAPHICS
 70
     1
  9
$MEASUREMENT
 70
     1
  9
$CELWEIGHT
370
    -1
  9
$ENDCAPS
280
     0
  9
$JOINSTYLE
280
     0
  9
$LWDISPLAY
290
     0
  9
$INSUNITS
 70
     5
  9
$HYPERLINKBASE
  1

  9
$STYLESHEET
  1

  9
$XEDIT
290
     1
  9
$CEPSNTYPE
380
     0
  9
$PSTYLEMODE
290
     1
  9
$FINGERPRINTGUID
  2
{6DB04194-1F7D-59A6-DE30-7D1D6460B805}
  9
$VERSIONGUID
  2
{88704C4D-A17F-6042-9ECB-DE7C056FE00C}
  9
$EXTNAMES
290
     1
  9
$PSVPSCALE
 40
0.0
  9
$OLESTARTUP
290
     0
  9
$SORTENTS
280
   127
  9
$INDEXCTL
280
     0
  9
$HIDETEXT
280
     1
  9
$XCLIPFRAME
280
     2
  9
$HALOGAP
280
     0
  9
$OBSCOLOR
 70
   257
  9
$OBSLTYPE
280
     0
  9
$INTERSECTIONDISPLAY
280
     0
  9
$INTERSECTIONCOLOR
 70
   257
  9
$DIMASSOC
280
     2
  9
$PROJECTNAME
  1

  9
$CAMERADISPLAY
290
     0
  9
$LENSLENGTH
 40
50.0
  9
$CAMERAHEIGHT
 40
0.0
  9
$STEPSPERSEC
 40
2.0
  9
$STEPSIZE
 40
6.0
  9
$3DDWFPREC
 40
2.0
  9
$PSOLWIDTH
 40
0.25
  9
$PSOLHEIGHT
 40
4.0
  9
$LOFTANG1
 40
1.570796326794896
  9
$LOFTANG2
 40
1.570796326794896
  9
$LOFTMAG1
 40
0.0
  9
$LOFTMAG2
 40
0.0
  9
$LOFTPARAM
 70
     7
  9
$LOFTNORMALS
280
     1
  9
$LATITUDE
 40
37.795
  9
$LONGITUDE
 40
-122.394
  9
$NORTHDIRECTION
 40
0.0
  9
$TIMEZONE
 70
 -8000
  9
$LIGHTGLYPHDISPLAY
280
     1
  9
$TILEMODELIGHTSYNCH
280
     1
  9
$CMATERIAL
347
86
  9
$SOLIDHIST
280
     0
  9
$SHOWHIST
280
     1
  9
$DWFFRAME
280
     2
  9
$DGNFRAME
280
     0
  9
$REALWORLDSCALE
290
     1
  9
$INTERFERECOLOR
 62
     1
  9
$INTERFEREOBJVS
345
5E7
  9
$INTERFEREVPVS
346
719
  9
$CSHADOW
280
     0
  9
$SHADOWPLANELOCATION
 40
0.0
  0
ENDSEC
  0
SECTION
  2
CLASSES
  0
CLASS
  1
ACDBDICTIONARYWDFLT
  2
AcDbDictionaryWithDefault
  3
ObjectDBX Classes
 90
        0
 91
        1
280
     0
281
     0
  0
CLASS
  1
MATERIAL
  2
AcDbMaterial
  3
ObjectDBX Classes
 90
     1153
 91
        3
280
     0
281
     0
  0
CLASS
  1
SCALE
  2
AcDbScale
  3
ObjectDBX Classes
 90
     1153
 91
       33
280
     0
281
     0
  0
CLASS
  1
DIMASSOC
  2
AcDbDimAssoc
  3
"AcDbDimAssoc|Product Desc:     AcDim ARX App For Dimension|Company:          Autodesk, Inc.|WEB Address:      www.autodesk.com"
 90
        0
 91
       12
280
     0
281
     0
  0
CLASS
  1
TABLESTYLE
  2
AcDbTableStyle
  3
ObjectDBX Classes
 90
     4095
 91
        1
280
     0
281
     0
  0
CLASS
  1
RASTERVARIABLES
  2
AcDbRasterVariables
  3
ISM
 90
        0
 91
        1
280
     0
281
     0
  0
CLASS
  1
DICTIONARYVAR
  2
AcDbDictionaryVar
  3
ObjectDBX Classes
 90
        0
 91
       11
280
     0
281
     0
  0
CLASS
  1
VISUALSTYLE
  2
AcDbVisualStyle
  3
ObjectDBX Classes
 90
     4095
 91
       26
280
     0
281
     0
  0
CLASS
  1
MLEADERSTYLE
  2
AcDbMLeaderStyle
  3
ACDB_MLEADERSTYLE_CLASS
 90
     4095
 91
        1
280
     0
281
     0
  0
CLASS
  1
SUN
  2
AcDbSun
  3
SCENEOE
 90
     1153
 91
        2
280
     0
281
     0
  0
CLASS
  1
CSACDOCUMENTOPTIONS
  2
CDocDataContainer
  3
"DERU003_CSAPP"
 90
     4095
 91
        2
280
     0
281
     0
  0
CLASS
  1
McDbContainer2
  2
McDbContainer2
  3
NanoSPDS
 90
      893
 91
        0
280
     0
281
     0
  0
CLASS
  1
SORTENTSTABLE
  2
AcDbSortentsTable
  3
ObjectDBX Classes
 90
        0
 91
        1
280
     0
281
     0
  0
CLASS
  1
refEditorObject
  2
refEditorObject
  3
"host"
 90
        0
 91
        0
280
     0
281
     0
  0
CLASS
  1
CELLSTYLEMAP
  2
AcDbCellStyleMap
  3
ObjectDBX Classes
 90
     1152
 91
        1
280
     0
281
     0
  0
CLASS
  1
ACDBPLACEHOLDER
  2
AcDbPlaceHolder
  3
ObjectDBX Classes
 90
        0
 91
        1
280
     0
281
     0
  0
CLASS
  1
LAYOUT
  2
AcDbLayout
  3
ObjectDBX Classes
 90
        0
 91
        2
280
     0
281
     0
  0
CLASS
  1
ACDBSECTIONVIEWSTYLE
  2
AcDbSectionViewStyle
  3
ObjectDBX Classes
 90
     1025
 91
        1
280
     0
281
     0
  0
CLASS
  1
ACDBDETAILVIEWSTYLE
  2
AcDbDetailViewStyle
  3
ObjectDBX Classes
 90
     1025
 91
        1
280
     0
281
     0
  0
ENDSEC
  0
SECTION
  2
TABLES
  0
TABLE
  2
VPORT
  5
6B
102
{ACAD_XDICTIONARY
360
999
102
}
330
0
100
AcDbSymbolTable
 70
     1
  0
VPORT
  5
82
330
6B
100
AcDbSymbolTableRecord
100
AcDbViewportTableRecord
  2
*ACTIVE
 70
     0
 10
0.0
 20
0.0
 11
1.0
 21
1.0
 12
30.70473118509631
 22
4.525830140412125
 13
0.0
 23
0.0
 14
0.5
 24
0.5
 15
0.5
 25
0.5
 16
0.0
 26
0.0
 36
1.0
 17
0.0
 27
0.0
 37
0.0
 40
46.78871081937313
 41
2.570850202429149
 42
50.0
 43
0.0
 44
0.0
 50
0.0
 51
0.0
 71
    16
 72
   100
 73
     1
 74
     3
 75
     0
 76
     0
 77
     0
 78
     0
281
     0
 65
     0
110
0.0
120
0.0
130
0.0
111
1.0
121
0.0
131
0.0
112
0.0
122
1.0
132
0.0
 79
     0
146
0.0
348
5E3
 60
     3
 61
     5
292
     1
282
     1
141
0.0
142
0.0
 63
   250
421
  3355443
361
725
1001
ACAD_NAV_VCDISPLAY
1070
     3
  0
ENDTAB
  0
TABLE
  2
LTYPE
  5
68
330
0
100
AcDbSymbolTable
 70
     4
  0
LTYPE
  5
76
330
68
100
AcDbSymbolTableRecord
100
AcDbLinetypeTableRecord
  2
ByBlock
 70
     0
  3

 72
    65
 73
     0
 40
0.0
  0
LTYPE
  5
77
330
68
100
AcDbSymbolTableRecord
100
AcDbLinetypeTableRecord
  2
ByLayer
 70
     0
  3
Solid line
 72
    65
 73
     0
 40
0.0
  0
LTYPE
  5
78
330
68
100
AcDbSymbolTableRecord
100
AcDbLinetypeTableRecord
  2
CONTINUOUS
 70
     0
  3
Solid line
 72
    65
 73
     0
 40
0.0
  0
LTYPE
  5
658
330
68
100
AcDbSymbolTableRecord
100
AcDbLinetypeTableRecord
  2
DYN_DIM
 70
     0
  3
Dashed dynamic dimension line
 72
    65
 73
     2
 40
0.0128918197164842
 49
0.0036833770618526
 74
     0
 49
-0.0092084426546316
 74
     0
  0
ENDTAB
  0
TABLE
  2
LAYER
  5
65
102
{ACAD_XDICTIONARY
360
72B
102
}
330
0
100
AcDbSymbolTable
 70
     8
  0
LAYER
  5
73
102
{ACAD_XDICTIONARY
360
A34
102
}
330
65
100
AcDbSymbolTableRecord
100
AcDbLayerTableRecord
  2
0
 70
     0
 62
   100
  6
CONTINUOUS
370
    -3
390
72
347
88
  0
LAYER
  5
89
102
{ACAD_XDICTIONARY
360
A36
102
}
330
65
100
AcDbSymbolTableRecord
100
AcDbLayerTableRecord
  2
FINESTRE
 70
     0
 62
    10
  6
CONTINUOUS
370
    -3
390
72
347
88
  0
LAYER
  5
B5
330
65
100
AcDbSymbolTableRecord
100
AcDbLayerTableRecord
  2
Defpoints
 70
     0
 62
    -7
  6
CONTINUOUS
290
     0
370
    -3
390
72
347
88
  0
LAYER
  5
E9
102
{ACAD_XDICTIONARY
360
A38
102
}
330
65
100
AcDbSymbolTableRecord
100
AcDbLayerTableRecord
  2
dimensioni
 70
     0
 62
    -2
  6
CONTINUOUS
370
    -3
390
72
347
88
  0
LAYER
  5
5DC
102
{ACAD_XDICTIONARY
360
A3A
102
}
330
65
100
AcDbSymbolTableRecord
100
AcDbLayerTableRecord
  2
superfici
 70
     0
 62
    -4
  6
CONTINUOUS
370
    -3
390
72
347
88
  0
LAYER
  5
66F
102
{ACAD_XDICTIONARY
360
A3C
102
}
330
65
100
AcDbSymbolTableRecord
100
AcDbLayerTableRecord
  2
aree
 70
     0
 62
    -4
  6
CONTINUOUS
370
    -3
390
72
347
88
  0
LAYER
  5
787
102
{ACAD_XDICTIONARY
360
A3E
102
}
330
65
100
AcDbSymbolTableRecord
100
AcDbLayerTableRecord
  2
DIMENSION
 70
     0
 62
     3
  6
CONTINUOUS
370
    25
390
72
347
88
  0
LAYER
  5
9F9
102
{ACAD_XDICTIONARY
360
A40
102
}
330
65
100
AcDbSymbolTableRecord
100
AcDbLayerTableRecord
  2
tetto
 70
     0
 62
     5
  6
CONTINUOUS
370
    -3
390
72
347
88
1001
AcAecLayerStandard
1000

1000

1001
AcCmTransparency
1071
        0
  0
ENDTAB
  0
TABLE
  2
STYLE
  5
66
330
0
100
AcDbSymbolTable
 70
     2
  0
STYLE
  5
74
330
66
100
AcDbSymbolTableRecord
100
AcDbTextStyleTableRecord
  2
STANDARD
 70
     0
 40
0.0
 41
1.0
 50
0.0
 71
     0
 42
0.2
  3
txt
  4

  0
STYLE
  5
657
330
66
100
AcDbSymbolTableRecord
100
AcDbTextStyleTableRecord
  2
DYN_DIM
 70
     0
 40
0.0
 41
1.0
 50
0.0
 71
     0
 42
0.2
  3
txt
  4

  0
ENDTAB
  0
TABLE
  2
VIEW
  5
69
330
0
100
AcDbSymbolTable
 70
     2
  0
ENDTAB
  0
TABLE
  2
UCS
  5
6A
330
0
100
AcDbSymbolTable
 70
     0
  0
ENDTAB
  0
TABLE
  2
APPID
  5
6C
330
0
100
AcDbSymbolTable
 70
    13
  0
APPID
  5
75
330
6C
100
AcDbSymbolTableRecord
100
AcDbRegAppTableRecord
  2
ACAD
 70
     0
  0
APPID
  5
771
330
6C
100
AcDbSymbolTableRecord
100
AcDbRegAppTableRecord
  2
ACAD_MLEADERVER
 70
     0
  0
APPID
  5
772
330
6C
100
AcDbSymbolTableRecord
100
AcDbRegAppTableRecord
  2
MCS_DIM1
 70
     0
  0
APPID
  5
773
330
6C
100
AcDbSymbolTableRecord
100
AcDbRegAppTableRecord
  2
McsXdata5
 70
     0
  0
APPID
  5
776
330
6C
100
AcDbSymbolTableRecord
100
AcDbRegAppTableRecord
  2
MCS_DOCUMENT_ID
 70
     0
  0
APPID
  5
7D0
330
6C
100
AcDbSymbolTableRecord
100
AcDbRegAppTableRecord
  2
MCS_PARAMS_DATA
 70
     0
  0
APPID
  5
7D2
330
6C
100
AcDbSymbolTableRecord
100
AcDbRegAppTableRecord
  2
MC_VERSION_DATA
 70
     0
  0
APPID
  5
9E2
330
6C
100
AcDbSymbolTableRecord
100
AcDbRegAppTableRecord
  2
AcadCodePageInfo
 70
     0
  0
APPID
  5
9E5
330
6C
100
AcDbSymbolTableRecord
100
AcDbRegAppTableRecord
  2
ACAD_NAV_VCDISPLAY
 70
     0
  0
APPID
  5
9FA
330
6C
100
AcDbSymbolTableRecord
100
AcDbRegAppTableRecord
  2
AcAecLayerStandard
 70
     0
  0
APPID
  5
9FB
330
6C
100
AcDbSymbolTableRecord
100
AcDbRegAppTableRecord
  2
AcCmTransparency
 70
     0
  0
APPID
  5
9FD
330
6C
100
AcDbSymbolTableRecord
100
AcDbRegAppTableRecord
  2
ACAD_EXEMPT_FROM_CAD_STANDARDS
 70
     0
  0
APPID
  5
B94
330
6C
100
AcDbSymbolTableRecord
100
AcDbRegAppTableRecord
  2
Acad_TC
 70
     0
  0
ENDTAB
  0
TABLE
  2
DIMSTYLE
  5
6D
330
0
100
AcDbSymbolTable
 70
     3
100
AcDbDimStyleTable
 71
     1
340
8B
  0
DIMSTYLE
105
8B
102
{ACAD_REACTORS
330
52C
330
53C
330
54C
330
55C
330
56C
330
57C
330
58C
330
59C
330
5AC
330
5CC
330
5EF
330
5FF
330
60D
330
639
330
649
330
B95
330
BAD
330
BC7
102
}
330
6D
100
AcDbSymbolTableRecord
100
AcDbDimStyleTableRecord
  2
Standard
 70
     0
271
     1
340
74
  0
ENDTAB
  0
TABLE
  2
BLOCK_RECORD
  5
64
330
0
100
AcDbSymbolTable
 70
    26
  0
BLOCK_RECORD
  5
7F
102
{ACAD_XDICTIONARY
360
79B
102
}
330
64
100
AcDbSymbolTableRecord
100
AcDbBlockTableRecord
  2
*Model_Space
340
80
 70
     0
280
     1
281
     0
  0
BLOCK_RECORD
  5
7D
330
64
100
AcDbSymbolTableRecord
100
AcDbBlockTableRecord
  2
*Paper_Space
340
7E
 70
     0
280
     1
281
     0
  0
BLOCK_RECORD
  5
8D
330
64
100
AcDbSymbolTableRecord
100
AcDbBlockTableRecord
  2
120X250
340
0
310
2800000020000000200000000100080000000000000400000000000000000000000000000000000000000000000080000080000000808000800000008000800080800000C0C0C000C0DCC000F0CAA6000020400000206000002080000020A0000020C0000020E00000400000004020000040400000406000004080000040A0
310
000040C0000040E00000600000006020000060400000606000006080000060A0000060C0000060E00000800000008020000080400000806000008080000080A0000080C0000080E00000A0000000A0200000A0400000A0600000A0800000A0A00000A0C00000A0E00000C0000000C0200000C0400000C0600000C0800000C0
310
A00000C0C00000C0E00000E0000000E0200000E0400000E0600000E0800000E0A00000E0C00000E0E00040000000400020004000400040006000400080004000A0004000C0004000E00040200000402020004020400040206000402080004020A0004020C0004020E000404000004040200040404000404060004040800040
310
40A0004040C0004040E00040600000406020004060400040606000406080004060A0004060C0004060E00040800000408020004080400040806000408080004080A0004080C0004080E00040A0000040A0200040A0400040A0600040A0800040A0A00040A0C00040A0E00040C0000040C0200040C0400040C0600040C08000
310
40C0A00040C0C00040C0E00040E0000040E0200040E0400040E0600040E0800040E0A00040E0C00040E0E00080000000800020008000400080006000800080008000A0008000C0008000E00080200000802020008020400080206000802080008020A0008020C0008020E00080400000804020008040400080406000804080
310
008040A0008040C0008040E00080600000806020008060400080606000806080008060A0008060C0008060E00080800000808020008080400080806000808080008080A0008080C0008080E00080A0000080A0200080A0400080A0600080A0800080A0A00080A0C00080A0E00080C0000080C0200080C0400080C0600080C0
310
800080C0A00080C0C00080C0E00080E0000080E0200080E0400080E0600080E0800080E0A00080E0C00080E0E000C0000000C0002000C0004000C0006000C0008000C000A000C000C000C000E000C0200000C0202000C0204000C0206000C0208000C020A000C020C000C020E000C0400000C0402000C0404000C0406000C0
310
408000C040A000C040C000C040E000C0600000C0602000C0604000C0606000C0608000C060A000C060C000C060E000C0800000C0802000C0804000C0806000C0808000C080A000C080C000C080E000C0A00000C0A02000C0A04000C0A06000C0A08000C0A0A000C0A0C000C0A0E000C0C00000C0C02000C0C04000C0C06000
310
C0C08000C0C0A000F0FBFF00A4A0A000808080000000FF0000FF000000FFFF00FF000000FF00FF00FFFF0000FFFFFF00FFFFFFFFFFFFFFFFFFFFFFFFFFFFFFFFFFFFFFFFFFFFFFFFFFFFFFFFFFFFFFFFFFFFFFFFFFFFFFFFFFFFFFFFFFFFFFFFFFFFFFFFFFFFFFFFFFFFFFFFFFFFFFFFFFFFFFFFFFFFFFFFFFFFFFFFFFFFFF
310
FFFFFFFFFFFFFFFFFFFFFFFFFFFFFFFFFFFFFFFFFFFFFFFFFFFFFFFFFFFFFFFFFFFFFFFFFFFFFFFFFFFFFFFFFFFFFFFFFFFFFFFFFFFFFFFFFFFFFFFFFFFFFFFFFFFFFFFFFFFFFFFFFFFFFFFFFFFFFFFFFFFFFFFFFFFFFFFFFFFFFFFFFFFFFFFFFFFFFFFFFFFFFFFFFFFFFFFFFFFFFFFFFFFFFFFFFFFFFFFFFFFFFFFFFFFFFF
310
FFFFFFFFFFFFFFFFFFFFFFFFFFFFFFFFFFFFFFFFFFFFFFFFFFFFFFFFFFFFFFFFFFFFFFFFFFFFFFFFFFFFFFFFFFFFFFFFFFFFFFFFFFFFFFFFFFFFFFFFFFFFFFFFFFFFFFFFFFFFFFFFFFFFFFFFFFFFFFFFFFFFFFFFFFFFFFFFFFFFFFFFFFFFFFFFFFFFFFFFFFFFFFFFFFFFFFFFFFFFFFFFFFFFFFF9F9F9F9F9F9F9F9F9F9F9F9
310
F9F9F9F9F9F9F9F9F9F9F9F9F9F9F9F9F9F9F9FFF9FFFFFFFFFFFFFFFFFFFFFFFFFFFFFFFFFFFFFFFFFFFFFFFFFFFFFFFFFFF9FFF9FFFFFFFFFFFFFFFFFFFFFFFFFFFFFFFFFFFFFFFFFFFFFFFFFFFFFFFFFFF9FFF9F9F9F9F9F9F9F9F9F9F9F9F9F9F9F9F9F9F9F9F9F9F9F9F9F9F9F9F9F9F9FFF9FFFFFFFFFFFFFFFFFFFF
310
FFFFFFFFFFFFFFFFFFFFFFFFFFFFFFFFFFFFFFF9FFF9F9F9F9F9F9F9F9F9F9F9F9F9F9F9F9F9F9F9F9F9F9F9F9F9F9F9F9F9F9F9FFF9FFFFFFFFFFFFFFFFFFFFFFFFFFFFFFFFFFFFFFFFFFFFFFFFFFFFFFFFFFF9FFF9FFFFFFFFFFFFFFFFFFFFFFFFFFFFFFFFFFFFFFFFFFFFFFFFFFFFFFFFFFF9FFF9FFFFFFFFFFFFFFFFFF
310
FFFFFFFFFFFFFFFFFFFFFFFFFFFFFFFFFFFFFFFFF9FFF9FFFFFFFFFFFFFFFFFFFFFFFFFFFFFFFFFFFFFFFFFFFFFFFFFFFFFFFFFFF9FFF9F9F9F9F9F9F9F9F9F9F9F9F9F9F9F9F9F9F9F9F9F9F9F9F9F9F9F9F9F9F9FFFFFFFFFFFFFFFFFFFFFFFFFFFFFFFFFFFFFFFFFFFFFFFFFFFFFFFFFFFFFFFFFFFFFFFFFFFFFFFFFFFF
310
FFFFFFFFFFFFFFFFFFFFFFFFFFFFFFFFFFFFFFFFFFFFFFFFFFFFFFFFFFFFFFFFFFFFFFFFFFFFFFFFFFFFFFFFFFFFFFFFFFFFFFFFFFFFFFFFFFFFFFFFFFFFFFFFFFFFFFFFFFFFFFFFFFFFFFFFFFFFFFFFFFFFFFFFFFFFFFFFFFFFFFFFFFFFFFFFFFFFFFFFFFFFFFFFFFFFFFFFFFFFFFFFFFFFFFFFFFFFFFFFFFFFFFFFFFFFFF
310
FFFFFFFFFFFFFFFFFFFFFFFFFFFFFFFFFFFFFFFFFFFFFFFFFFFFFFFFFFFFFFFFFFFFFFFFFFFFFFFFFFFFFFFFFFFFFFFFFFFFFFFFFFFFFFFFFFFFFFFFFFFFFFFFFFFFFFFFFFFFFFFFFFFFFFFFFFFFFFFFFFFFFFFFFFFFFFFFFFFFFFFFFFFFFFFFFFFFFFFFFFFFFFFFFFFFFFFFFFFFFFFFFFFFFFFFFFFFFFFFFFFFFFFFFFFFFF
310
FFFFFFFFFFFFFFFFFFFFFFFFFFFFFFFFFFFFFFFFFFFFFFFFFFFFFFFFFFFFFFFFFFFFFFFFFFFFFFFFFFFFFFFFFFFFFFFFFFFFFFFFFFFFFFFF
102
{BLKREFS
331
7EA
331
7EB
331
4F
331
50
331
51
331
52
102
}
 70
     0
280
     1
281
     0
  0
BLOCK_RECORD
  5
12A
330
64
100
AcDbSymbolTableRecord
100
AcDbBlockTableRecord
  2
1x1.5
340
0
310
2800000020000000200000000100080000000000000400000000000000000000000000000000000000000000000080000080000000808000800000008000800080800000C0C0C000C0DCC000F0CAA6000020400000206000002080000020A0000020C0000020E00000400000004020000040400000406000004080000040A0
310
000040C0000040E00000600000006020000060400000606000006080000060A0000060C0000060E00000800000008020000080400000806000008080000080A0000080C0000080E00000A0000000A0200000A0400000A0600000A0800000A0A00000A0C00000A0E00000C0000000C0200000C0400000C0600000C0800000C0
310
A00000C0C00000C0E00000E0000000E0200000E0400000E0600000E0800000E0A00000E0C00000E0E00040000000400020004000400040006000400080004000A0004000C0004000E00040200000402020004020400040206000402080004020A0004020C0004020E000404000004040200040404000404060004040800040
310
40A0004040C0004040E00040600000406020004060400040606000406080004060A0004060C0004060E00040800000408020004080400040806000408080004080A0004080C0004080E00040A0000040A0200040A0400040A0600040A0800040A0A00040A0C00040A0E00040C0000040C0200040C0400040C0600040C08000
310
40C0A00040C0C00040C0E00040E0000040E0200040E0400040E0600040E0800040E0A00040E0C00040E0E00080000000800020008000400080006000800080008000A0008000C0008000E00080200000802020008020400080206000802080008020A0008020C0008020E00080400000804020008040400080406000804080
310
008040A0008040C0008040E00080600000806020008060400080606000806080008060A0008060C0008060E00080800000808020008080400080806000808080008080A0008080C0008080E00080A0000080A0200080A0400080A0600080A0800080A0A00080A0C00080A0E00080C0000080C0200080C0400080C0600080C0
310
800080C0A00080C0C00080C0E00080E0000080E0200080E0400080E0600080E0800080E0A00080E0C00080E0E000C0000000C0002000C0004000C0006000C0008000C000A000C000C000C000E000C0200000C0202000C0204000C0206000C0208000C020A000C020C000C020E000C0400000C0402000C0404000C0406000C0
310
408000C040A000C040C000C040E000C0600000C0602000C0604000C0606000C0608000C060A000C060C000C060E000C0800000C0802000C0804000C0806000C0808000C080A000C080C000C080E000C0A00000C0A02000C0A04000C0A06000C0A08000C0A0A000C0A0C000C0A0E000C0C00000C0C02000C0C04000C0C06000
310
C0C08000C0C0A000F0FBFF00A4A0A000808080000000FF0000FF000000FFFF00FF000000FF00FF00FFFF0000FFFFFF00FFFFFFFFFFFFFFFFFFFFFFFFFFFFFFFFFFFFFFFFFFFFFFFFFFFFFFFFFFFFFFFFFFFFFFFFFFFFFFFFFFFFFFFFFFFFFFFFFFFFFFFFFFFFFFFFFFFFFFFFFFFFFFFFFFFFFFFFFFFFFFFFFFFFFFFFFFFFFF
310
FFFFFFFFFFFFFFFFFFFFFFFFFFFFFFFFFFFFFFFFFFFFFFFFFFFFFFFFFFFFFFFFFFFFFFFFFFFFFFFFFFFFFFFFFFFFFFFFFFFFFFFFFFFFFFFFFFFFFFFFFFFFFFFFFFFFFFFFFFFFFFFFFFFFFFFFFFFFFFFFFFFFFFFFFFFFFFFFFFFFFFFFFFFFFFFFFFFFFFFFFFFFFFFFFFFFFFFFFFFFFFFFFFFFFFFFFFFFFFFFFFFFFFFFFFFFFF
310
FFFFFFFFFFFFFFFFFFFFFFFFFFFFFFFFFFFFFFFFFFFFFFFFFFFFFFFFFFFFFFFFFFFFFFFFFFFFFFFFFFFFFFFFFFFFFFFFFFFFFFFFFFFFFFFFFFFFFFFFFFFFFFFFFFFFFFFFFFFFFFFFFFFFFFFFFFFFFFFFFFFFFFF9F9F9F9F9F9F9F9F9F9F9F9F9F9F9F9F9F9F9F9F9F9F9F9F9F9F9F9F9F9FFFFF9FFFFFFFFFFFFFFFFFFFFFF
310
FFFFFFFFFFFFFFFFFFFFFFFFFFFFFFFFFFFFF9FFF9FFFFFFFFFFFFFFFFFFFFFFFFFFFFFFFFFFFFFFFFFFFFFFFFFFFFFFFFFFF9FFF9FFFFFFFFFFFFFFFFFFFFFFFFFFFFFFFFFFFFFFFFFFFFFFFFFFFFFFFFFFF9FFF9F9F9F9F9F9F9F9F9F9F9F9F9F9F9F9F9F9F9F9F9F9F9F9F9F9F9F9F9F9F9FFF9F9F9F9F9F9F9F9F9F9F9
310
F9F9F9F9F9F9F9F9F9F9F9F9F9F9F9F9F9F9F9F9FFF9FFFFFFFFFFFFFFFFFFFFFFFFFFFFFFFFFFFFFFFFFFFFFFFFFFFFFFFFFFF9FFF9FFFFFFFFFFFFFFFFFFFFFFFFFFFFFFFFFFFFFFFFFFFFFFFFFFFFFFFFFFF9FFF9FFFFFFFFFFFFFFFFFFFFFFFFFFFFFFFFFFFFFFFFFFFFFFFFFFFFFFFFFFF9FFF9FFFFFFFFFFFFFFFFFF
310
FFFFFFFFFFFFFFFFFFFFFFFFFFFFFFFFFFFFFFFFF9FFF9FFFFFFFFFFFFFFFFFFFFFFFFFFFFFFFFFFFFFFFFFFFFFFFFFFFFFFFFFFF9FFF9FFFFFFFFFFFFFFFFFFFFFFFFFFFFFFFFFFFFFFFFFFFFFFFFFFFFFFFFFFF9FFF9F9F9F9F9F9F9F9F9F9F9F9F9F9F9F9F9F9F9F9F9F9F9F9F9F9F9F9F9F9F9FFFFFFFFFFFFFFFFFFFF
310
FFFFFFFFFFFFFFFFFFFFFFFFFFFFFFFFFFFFFFFFFFFFFFFFFFFFFFFFFFFFFFFFFFFFFFFFFFFFFFFFFFFFFFFFFFFFFFFFFFFFFFFFFFFFFFFFFFFFFFFFFFFFFFFFFFFFFFFFFFFFFFFFFFFFFFFFFFFFFFFFFFFFFFFFFFFFFFFFFFFFFFFFFFFFFFFFFFFFFFFFFFFFFFFFFFFFFFFFFFFFFFFFFFFFFFFFFFFFFFFFFFFFFFFFFFFFFF
310
FFFFFFFFFFFFFFFFFFFFFFFFFFFFFFFFFFFFFFFFFFFFFFFFFFFFFFFFFFFFFFFFFFFFFFFFFFFFFFFFFFFFFFFFFFFFFFFFFFFFFFFFFFFFFFFFFFFFFFFFFFFFFFFFFFFFFFFFFFFFFFFFFFFFFFFFFFFFFFFFFFFFFFFFFFFFFFFFFFFFFFFFFFFFFFFFFFFFFFFFFFFFFFFFFFFFFFFFFFFFFFFFFFFFFFFFFFFFFFFFFFFFFFFFFFFFFF
310
FFFFFFFFFFFFFFFFFFFFFFFFFFFFFFFFFFFFFFFFFFFFFFFFFFFFFFFFFFFFFFFFFFFFFFFFFFFFFFFFFFFFFFFFFFFFFFFFFFFFFFFFFFFFFFFF
102
{BLKREFS
331
132
102
}
 70
     5
280
     1
281
     0
  0
BLOCK_RECORD
  5
135
330
64
100
AcDbSymbolTableRecord
100
AcDbBlockTableRecord
  2
2.4x2.5
340
0
310
2800000020000000200000000100080000000000000400000000000000000000000000000000000000000000000080000080000000808000800000008000800080800000C0C0C000C0DCC000F0CAA6000020400000206000002080000020A0000020C0000020E00000400000004020000040400000406000004080000040A0
310
000040C0000040E00000600000006020000060400000606000006080000060A0000060C0000060E00000800000008020000080400000806000008080000080A0000080C0000080E00000A0000000A0200000A0400000A0600000A0800000A0A00000A0C00000A0E00000C0000000C0200000C0400000C0600000C0800000C0
310
A00000C0C00000C0E00000E0000000E0200000E0400000E0600000E0800000E0A00000E0C00000E0E00040000000400020004000400040006000400080004000A0004000C0004000E00040200000402020004020400040206000402080004020A0004020C0004020E000404000004040200040404000404060004040800040
310
40A0004040C0004040E00040600000406020004060400040606000406080004060A0004060C0004060E00040800000408020004080400040806000408080004080A0004080C0004080E00040A0000040A0200040A0400040A0600040A0800040A0A00040A0C00040A0E00040C0000040C0200040C0400040C0600040C08000
310
40C0A00040C0C00040C0E00040E0000040E0200040E0400040E0600040E0800040E0A00040E0C00040E0E00080000000800020008000400080006000800080008000A0008000C0008000E00080200000802020008020400080206000802080008020A0008020C0008020E00080400000804020008040400080406000804080
310
008040A0008040C0008040E00080600000806020008060400080606000806080008060A0008060C0008060E00080800000808020008080400080806000808080008080A0008080C0008080E00080A0000080A0200080A0400080A0600080A0800080A0A00080A0C00080A0E00080C0000080C0200080C0400080C0600080C0
310
800080C0A00080C0C00080C0E00080E0000080E0200080E0400080E0600080E0800080E0A00080E0C00080E0E000C0000000C0002000C0004000C0006000C0008000C000A000C000C000C000E000C0200000C0202000C0204000C0206000C0208000C020A000C020C000C020E000C0400000C0402000C0404000C0406000C0
310
408000C040A000C040C000C040E000C0600000C0602000C0604000C0606000C0608000C060A000C060C000C060E000C0800000C0802000C0804000C0806000C0808000C080A000C080C000C080E000C0A00000C0A02000C0A04000C0A06000C0A08000C0A0A000C0A0C000C0A0E000C0C00000C0C02000C0C04000C0C06000
310
C0C08000C0C0A000F0FBFF00A4A0A000808080000000FF0000FF000000FFFF00FF000000FF00FF00FFFF0000FFFFFF00FFFFFFFFFFFFFFFFFFFFFFFFFFFFFFFFFFFFFFFFFFFFFFFFFFFFFFFFFFFFFFFFFFFFFFFFFFFFFFFFFFFFFFFFFFFFFFFFFFFFFFFFFFFFFFFFFFFFFFFFFFFFFFFFFFFFFFFFFFFFFFFFFFFFFFFFFFFFFF
310
FFFFFFFFFFFFFFFFFFFFFFFFFFFFFFFFFFFFFFFFFFFFFFFFFFFFFFFFFFFFFFFFFFFFFFFFFFFFFFFFFFFFFFFFFFFFFFFFFFFFFFFFFFFFFFFFFFFFFFFFFFFFFFFFFFFFFFFFFFFFFFFFFFFFFFFFFFFFFFFFFFFFFFFFFFFFFFFFFFFFFFFFFFFFFFFFFFFFFFFFFFFFFFFFFFFFFFFFFFFFFFFFFFFFFFFFFFFFFFFFFFFFFFFFFFFFFF
310
FFFFFFFFFFFFFFFFFFFFFFFFFFFFFFFFFFFFFFFFFFFFFFFFFFFFFFFFFFFFFFFFFFFFFFFFFFFFFFFFFFFFFFFFFFFFFFFFFFFFFFFFFFFFFFFFFFFFFFFFFFFFFFFFFFFFFFFFFFFFFFFFFFFFFFFFFFFFFFFFFFFFFFFFFFFFFFFFFFFFFFFFFFFFFFFFFFFFFFFFFFFFFFFFFFFFFFFFFFFFFFFFFFFFFFFFFFFFFFFFFFFFFFFFFFFFFF
310
FFFFFFFFFFFFFFFFFFFFFFFFFFFFFFFFFFFFFFFFFFFFFFFFFFFFFFFFFFFFFFFFFFFFFFFFFFFFFFFFFFFFFFFFFFFFFFFFFFFFFFFFF9F9F9F9F9F9F9F9F9F9F9F9F9F9F9F9F9F9F9F9F9F9F9F9F9F9F9F9F9F9FFFFF9FFFFFFFFFFFFFFFFFFFFFFFFFFFFFFFFFFFFFFFFFFFFFFFFFFFFFFFFFFF9FFF9F9F9F9F9F9F9F9F9F9F9
310
F9F9F9F9F9F9F9F9F9F9F9F9F9F9F9F9F9F9F9F9FFF9F9F9F9F9F9F9F9F9F9F9F9F9F9F9F9F9F9F9F9F9F9F9F9F9F9F9F9F9F9F9FFF9FFFFFFFFFFFFFFFFFFFFFFFFFFFFFFFFFFFFFFFFFFFFFFFFFFFFFFFFFFF9FFF9FFFFFFFFFFFFFFFFFFFFFFFFFFFFFFFFFFFFFFFFFFFFFFFFFFFFFFFFFFF9FFF9F9F9F9F9F9F9F9F9F9
310
F9F9F9F9F9F9F9F9F9F9F9F9F9F9F9F9F9F9F9F9F9FFFFFFFFFFFFFFFFFFFFFFFFFFFFFFFFFFFFFFFFFFFFFFFFFFFFFFFFFFFFFFFFFFFFFFFFFFFFFFFFFFFFFFFFFFFFFFFFFFFFFFFFFFFFFFFFFFFFFFFFFFFFFFFFFFFFFFFFFFFFFFFFFFFFFFFFFFFFFFFFFFFFFFFFFFFFFFFFFFFFFFFFFFFFFFFFFFFFFFFFFFFFFFFFFFFF
310
FFFFFFFFFFFFFFFFFFFFFFFFFFFFFFFFFFFFFFFFFFFFFFFFFFFFFFFFFFFFFFFFFFFFFFFFFFFFFFFFFFFFFFFFFFFFFFFFFFFFFFFFFFFFFFFFFFFFFFFFFFFFFFFFFFFFFFFFFFFFFFFFFFFFFFFFFFFFFFFFFFFFFFFFFFFFFFFFFFFFFFFFFFFFFFFFFFFFFFFFFFFFFFFFFFFFFFFFFFFFFFFFFFFFFFFFFFFFFFFFFFFFFFFFFFFFFF
310
FFFFFFFFFFFFFFFFFFFFFFFFFFFFFFFFFFFFFFFFFFFFFFFFFFFFFFFFFFFFFFFFFFFFFFFFFFFFFFFFFFFFFFFFFFFFFFFFFFFFFFFFFFFFFFFFFFFFFFFFFFFFFFFFFFFFFFFFFFFFFFFFFFFFFFFFFFFFFFFFFFFFFFFFFFFFFFFFFFFFFFFFFFFFFFFFFFFFFFFFFFFFFFFFFFFFFFFFFFFFFFFFFFFFFFFFFFFFFFFFFFFFFFFFFFFFFF
310
FFFFFFFFFFFFFFFFFFFFFFFFFFFFFFFFFFFFFFFFFFFFFFFFFFFFFFFFFFFFFFFFFFFFFFFFFFFFFFFFFFFFFFFFFFFFFFFFFFFFFFFFFFFFFFFF
102
{BLKREFS
331
13D
102
}
 70
     5
280
     1
281
     0
  0
BLOCK_RECORD
  5
1E9
330
64
100
AcDbSymbolTableRecord
100
AcDbBlockTableRecord
  2
radiatore120
340
0
 70
     5
280
     1
281
     0
  0
BLOCK_RECORD
  5
353
330
64
100
AcDbSymbolTableRecord
100
AcDbBlockTableRecord
  2
radiatore0.6
340
0
 70
     5
280
     1
281
     0
  0
BLOCK_RECORD
  5
52F
330
64
100
AcDbSymbolTableRecord
100
AcDbBlockTableRecord
  2
*D5
340
0
 70
     0
280
     1
281
     0
  0
BLOCK_RECORD
  5
53F
330
64
100
AcDbSymbolTableRecord
100
AcDbBlockTableRecord
  2
*D6
340
0
 70
     0
280
     1
281
     0
  0
BLOCK_RECORD
  5
54F
330
64
100
AcDbSymbolTableRecord
100
AcDbBlockTableRecord
  2
*D7
340
0
 70
     0
280
     1
281
     0
  0
BLOCK_RECORD
  5
55F
330
64
100
AcDbSymbolTableRecord
100
AcDbBlockTableRecord
  2
*D8
340
0
 70
     0
280
     1
281
     0
  0
BLOCK_RECORD
  5
56F
330
64
100
AcDbSymbolTableRecord
100
AcDbBlockTableRecord
  2
*D9
340
0
 70
     0
280
     1
281
     0
  0
BLOCK_RECORD
  5
57F
330
64
100
AcDbSymbolTableRecord
100
AcDbBlockTableRecord
  2
*D10
340
0
 70
     0
280
     1
281
     0
  0
BLOCK_RECORD
  5
58F
330
64
100
AcDbSymbolTableRecord
100
AcDbBlockTableRecord
  2
*D11
340
0
 70
     0
280
     1
281
     0
  0
BLOCK_RECORD
  5
59F
330
64
100
AcDbSymbolTableRecord
100
AcDbBlockTableRecord
  2
*D12
340
0
 70
     0
280
     1
281
     0
  0
BLOCK_RECORD
  5
5AF
330
64
100
AcDbSymbolTableRecord
100
AcDbBlockTableRecord
  2
*D13
340
0
 70
     0
280
     1
281
     0
  0
BLOCK_RECORD
  5
5CF
330
64
100
AcDbSymbolTableRecord
100
AcDbBlockTableRecord
  2
*D14
340
0
 70
     0
280
     1
281
     0
  0
BLOCK_RECORD
  5
5F2
330
64
100
AcDbSymbolTableRecord
100
AcDbBlockTableRecord
  2
*D15
340
0
 70
     0
280
     1
281
     0
  0
BLOCK_RECORD
  5
600
330
64
100
AcDbSymbolTableRecord
100
AcDbBlockTableRecord
  2
*D16
340
0
 70
     0
280
     1
281
     0
  0
BLOCK_RECORD
  5
60E
330
64
100
AcDbSymbolTableRecord
100
AcDbBlockTableRecord
  2
*D17
340
0
 70
     0
280
     1
281
     0
  0
BLOCK_RECORD
  5
63C
330
64
100
AcDbSymbolTableRecord
100
AcDbBlockTableRecord
  2
*D18
340
0
 70
     0
280
     1
281
     0
  0
BLOCK_RECORD
  5
64A
330
64
100
AcDbSymbolTableRecord
100
AcDbBlockTableRecord
  2
*D19
340
0
 70
     0
280
     1
281
     0
  0
BLOCK_RECORD
  5
872
330
64
100
AcDbSymbolTableRecord
100
AcDbBlockTableRecord
  2
0.6x1.5
340
0
310
2800000020000000200000000100080000000000000400000000000000000000000000000000000000000000000080000080000000808000800000008000800080800000C0C0C000C0DCC000F0CAA6000020400000206000002080000020A0000020C0000020E00000400000004020000040400000406000004080000040A0
310
000040C0000040E00000600000006020000060400000606000006080000060A0000060C0000060E00000800000008020000080400000806000008080000080A0000080C0000080E00000A0000000A0200000A0400000A0600000A0800000A0A00000A0C00000A0E00000C0000000C0200000C0400000C0600000C0800000C0
310
A00000C0C00000C0E00000E0000000E0200000E0400000E0600000E0800000E0A00000E0C00000E0E00040000000400020004000400040006000400080004000A0004000C0004000E00040200000402020004020400040206000402080004020A0004020C0004020E000404000004040200040404000404060004040800040
310
40A0004040C0004040E00040600000406020004060400040606000406080004060A0004060C0004060E00040800000408020004080400040806000408080004080A0004080C0004080E00040A0000040A0200040A0400040A0600040A0800040A0A00040A0C00040A0E00040C0000040C0200040C0400040C0600040C08000
310
40C0A00040C0C00040C0E00040E0000040E0200040E0400040E0600040E0800040E0A00040E0C00040E0E00080000000800020008000400080006000800080008000A0008000C0008000E00080200000802020008020400080206000802080008020A0008020C0008020E00080400000804020008040400080406000804080
310
008040A0008040C0008040E00080600000806020008060400080606000806080008060A0008060C0008060E00080800000808020008080400080806000808080008080A0008080C0008080E00080A0000080A0200080A0400080A0600080A0800080A0A00080A0C00080A0E00080C0000080C0200080C0400080C0600080C0
310
800080C0A00080C0C00080C0E00080E0000080E0200080E0400080E0600080E0800080E0A00080E0C00080E0E000C0000000C0002000C0004000C0006000C0008000C000A000C000C000C000E000C0200000C0202000C0204000C0206000C0208000C020A000C020C000C020E000C0400000C0402000C0404000C0406000C0
310
408000C040A000C040C000C040E000C0600000C0602000C0604000C0606000C0608000C060A000C060C000C060E000C0800000C0802000C0804000C0806000C0808000C080A000C080C000C080E000C0A00000C0A02000C0A04000C0A06000C0A08000C0A0A000C0A0C000C0A0E000C0C00000C0C02000C0C04000C0C06000
310
C0C08000C0C0A000F0FBFF00A4A0A000808080000000FF0000FF000000FFFF00FF000000FF00FF00FFFF0000FFFFFF00FFFFFFFFFFFFFFFFFFFFFFFFFFFFFFFFFFFFFFFFFFFFFFFFFFFFFFFFFFFFFFFFFFFFFFFFFFFFFFFFFFFFFFFFFFFFFFFFFFFFFFFFFFFFFFFFFFFFFFFFFFFFFFFFFFFFFFFFFFFFFFFFFFFFFFFFFFFFFF
310
FFFFFFFFFFFFFFFFFFFFFFFFFFFFFFFFFFFFFFFFFFFFFFFFFFFFFFFFFFFFFFFFFFFFFFFFFFFFFFFFFFFFFFFFFFFFFFFFFFFFF9F9F9F9F9F9F9F9F9F9F9F9F9F9F9F9F9F9F9F9F9F9F9F9F9F9F9F9F9F9FFFFF9FFFFFFFFFFFFFFFFFFFFFFFFFFFFFFFFFFFFFFFFFFFFFFFFFFFFFFFFFFF9FFF9FFFFFFFFFFFFFFFFFFFFFFFF
310
FFFFFFFFFFFFFFFFFFFFFFFFFFFFFFFFFFF9FFF9FFFFFFFFFFFFFFFFFFFFFFFFFFFFFFFFFFFFFFFFFFFFFFFFFFFFFFFFFFF9FFF9FFFFFFFFFFFFFFFFFFFFFFFFFFFFFFFFFFFFFFFFFFFFFFFFFFFFFFFFFFF9FFF9FFFFFFFFFFFFFFFFFFFFFFFFFFFFFFFFFFFFFFFFFFFFFFFFFFFFFFFFFFF9FFF9FFFFFFFFFFFFFFFFFFFFFF
310
FFFFFFFFFFFFFFFFFFFFFFFFFFFFFFFFFFFFF9FFF9FFFFFFFFFFFFFFFFFFFFFFFFFFFFFFFFFFFFFFFFFFFFFFFFFFFFFFFFFFF9FFF9F9F9F9F9F9F9F9F9F9F9F9F9F9F9F9F9F9F9F9F9F9F9F9F9F9F9F9F9F9F9FFF9FFFFFFFFFFFFFFFFFFFFFFFFFFFFFFFFFFFFFFFFFFFFFFFFFFFFFFFFFFF9FFF9F9F9F9F9F9F9F9F9F9F9
310
F9F9F9F9F9F9F9F9F9F9F9F9F9F9F9F9F9F9F9F9FFF9FFFFFFFFFFFFFFFFFFFFFFFFFFFFFFFFFFFFFFFFFFFFFFFFFFFFFFFFFFF9FFF9FFFFFFFFFFFFFFFFFFFFFFFFFFFFFFFFFFFFFFFFFFFFFFFFFFFFFFFFFFF9FFF9FFFFFFFFFFFFFFFFFFFFFFFFFFFFFFFFFFFFFFFFFFFFFFFFFFFFFFFFFFF9FFF9FFFFFFFFFFFFFFFFFF
310
FFFFFFFFFFFFFFFFFFFFFFFFFFFFFFFFFFFFFFFFF9FFF9FFFFFFFFFFFFFFFFFFFFFFFFFFFFFFFFFFFFFFFFFFFFFFFFFFFFFFFFFFF9FFF9FFFFFFFFFFFFFFFFFFFFFFFFFFFFFFFFFFFFFFFFFFFFFFFFFFFFFFFFFFF9FFF9FFFFFFFFFFFFFFFFFFFFFFFFFFFFFFFFFFFFFFFFFFFFFFFFFFFFFFFFFFF9FFF9FFFFFFFFFFFFFFFF
310
FFFFFFFFFFFFFFFFFFFFFFFFFFFFFFFFFFFFFFFFFFF9FFF9FFFFFFFFFFFFFFFFFFFFFFFFFFFFFFFFFFFFFFFFFFFFFFFFFFFFFFFFFFF9FFF9FFFFFFFFFFFFFFFFFFFFFFFFFFFFFFFFFFFFFFFFFFFFFFFFFFFFFFFFFFF9FFF9FFFFFFFFFFFFFFFFFFFFFFFFFFFFFFFFFFFFFFFFFFFFFFFFFFFFFFFFFFF9FFF9F9F9F9F9F9F9F9
310
F9F9F9F9F9F9F9F9F9F9F9F9F9F9F9F9F9F9F9F9F9F9F9FFFFFFFFFFFFFFFFFFFFFFFFFFFFFFFFFFFFFFFFFFFFFFFFFFFFFFFFFFFFFFFFFFFFFFFFFFFFFFFFFFFFFFFFFFFFFFFFFFFFFFFFFFFFFFFFFFFFFFFFFFFFFFFFFFFFFFFFFFFFFFFFFFFFFFFFFFFFFFFFFFFFFFFFFFFFFFFFFFFFFFFFFFFFFFFFFFFFFFFFFFFFFFFF
310
FFFFFFFFFFFFFFFFFFFFFFFFFFFFFFFFFFFFFFFFFFFFFFFFFFFFFFFFFFFFFFFFFFFFFFFFFFFFFFFFFFFFFFFFFFFFFFFFFFFFFFFFFFFFFFFF
102
{BLKREFS
331
87B
102
}
 70
     5
280
     1
281
     0
  0
BLOCK_RECORD
  5
B96
330
64
100
AcDbSymbolTableRecord
100
AcDbBlockTableRecord
  2
*D23
340
0
 70
     0
280
     1
281
     0
  0
BLOCK_RECORD
  5
BAE
330
64
100
AcDbSymbolTableRecord
100
AcDbBlockTableRecord
  2
*D24
340
0
 70
     0
280
     1
281
     0
  0
BLOCK_RECORD
  5
BC8
330
64
100
AcDbSymbolTableRecord
100
AcDbBlockTableRecord
  2
*D25
340
0
 70
     0
280
     1
281
     0
  0
ENDTAB
  0
ENDSEC
  0
SECTION
  2
BLOCKS
  0
BLOCK
  5
91
330
7F
100
AcDbEntity
  8
0
100
AcDbBlockBegin
  2
*Model_Space
 70
     0
 10
0.0
 20
0.0
 30
0.0
  3
*Model_Space
  1

  0
ENDBLK
  5
92
330
7F
100
AcDbEntity
  8
0
100
AcDbBlockEnd
  0
BLOCK
  5
8F
330
7D
100
AcDbEntity
 67
     1
  8
0
100
AcDbBlockBegin
  2
*Paper_Space
 70
     0
 10
0.0
 20
0.0
 30
0.0
  3
*Paper_Space
  1

  0
ENDBLK
  5
90
330
7D
100
AcDbEntity
 67
     1
  8
0
100
AcDbBlockEnd
  0
BLOCK
  5
8C
330
8D
100
AcDbEntity
  8
0
100
AcDbBlockBegin
  2
120X250
 70
     0
 10
0.0
 20
0.0
 30
0.0
  3
120X250
  1

  0
LWPOLYLINE
  5
7E6
330
8D
100
AcDbEntity
  8
FINESTRE
100
AcDbPolyline
 90
        4
 70
     1
 43
0.0
 10
0.0
 20
0.0
 10
1.199999999999999
 20
0.0
 10
1.199999999999999
 20
0.4400000000000001
 10
0.0
 20
0.4400000000000001
  0
LINE
  5
7E7
330
8D
100
AcDbEntity
  8
FINESTRE
100
AcDbLine
 10
0.0
 20
0.15
 30
0.0
 11
1.199999999999999
 21
0.15
 31
0.0
  0
LINE
  5
7E8
330
8D
100
AcDbEntity
  8
FINESTRE
100
AcDbLine
 10
0.0
 20
0.2
 30
0.0
 11
1.199999999999999
 21
0.2
 31
0.0
  0
ENDBLK
  5
8E
330
8D
100
AcDbEntity
  8
0
100
AcDbBlockEnd
  0
BLOCK
  5
130
330
12A
100
AcDbEntity
  8
0
100
AcDbBlockBegin
  2
1x1.5
 70
     0
 10
0.0
 20
0.0
 30
0.0
  3
1x1.5
  1

  0
LINE
  5
7FE
330
12A
100
AcDbEntity
  8
FINESTRE
100
AcDbLine
 10
1.0
 20
0.4336238201979683
 30
0.0
 11
0.0
 21
0.4336238201979683
 31
0.0
  0
LINE
  5
7FF
330
12A
100
AcDbEntity
  8
FINESTRE
100
AcDbLine
 10
0.0
 20
0.0
 30
0.0
 11
1.0
 21
0.0
 31
0.0
  0
LINE
  5
800
330
12A
100
AcDbEntity
  8
FINESTRE
100
AcDbLine
 10
0.0
 20
0.1500000000000003
 30
0.0
 11
1.0
 21
0.1500000000000003
 31
0.0
  0
LINE
  5
801
330
12A
100
AcDbEntity
  8
FINESTRE
100
AcDbLine
 10
0.0
 20
0.4336238201979683
 30
0.0
 11
0.0
 21
0.0
 31
0.0
  0
LINE
  5
802
330
12A
100
AcDbEntity
  8
FINESTRE
100
AcDbLine
 10
1.0
 20
0.4373184281963408
 30
0.0
 11
1.0
 21
0.0
 31
0.0
  0
LINE
  5
803
330
12A
100
AcDbEntity
  8
FINESTRE
100
AcDbLine
 10
0.0
 20
0.2000000000000003
 30
0.0
 11
1.0
 21
0.2000000000000003
 31
0.0
  0
ENDBLK
  5
131
330
12A
100
AcDbEntity
  8
0
100
AcDbBlockEnd
  0
BLOCK
  5
13B
330
135
100
AcDbEntity
  8
0
100
AcDbBlockBegin
  2
2.4x2.5
 70
     0
 10
0.0
 20
0.0
 30
0.0
  3
2.4x2.5
  1

  0
LINE
  5
817
330
135
100
AcDbEntity
  8
FINESTRE
100
AcDbLine
 10
0.0
 20
0.2999999999999998
 30
0.0
 11
0.0
 21
0.0
 31
0.0
  0
LINE
  5
818
330
135
100
AcDbEntity
  8
FINESTRE
100
AcDbLine
 10
0.0
 20
0.0
 30
0.0
 11
2.399999999999999
 21
0.0
 31
0.0
  0
LINE
  5
819
330
135
100
AcDbEntity
  8
FINESTRE
100
AcDbLine
 10
0.0
 20
0.1500000000000003
 30
0.0
 11
2.399999999999999
 21
0.1500000000000003
 31
0.0
  0
LINE
  5
81A
330
135
100
AcDbEntity
  8
FINESTRE
100
AcDbLine
 10
2.399999999999999
 20
0.4399999999999999
 30
0.0
 11
0.0
 21
0.4399999999999999
 31
0.0
  0
LINE
  5
81B
330
135
100
AcDbEntity
  8
FINESTRE
100
AcDbLine
 10
0.0
 20
0.2000000000000003
 30
0.0
 11
2.399999999999999
 21
0.2000000000000003
 31
0.0
  0
LINE
  5
81C
330
135
100
AcDbEntity
  8
FINESTRE
100
AcDbLine
 10
2.399999999999999
 20
0.4399999999999999
 30
0.0
 11
2.399999999999999
 21
0.0
 31
0.0
  0
LINE
  5
81D
330
135
100
AcDbEntity
  8
FINESTRE
100
AcDbLine
 10
0.0
 20
0.4399999999999999
 30
0.0
 11
0.0
 21
0.0
 31
0.0
  0
ENDBLK
  5
13C
330
135
100
AcDbEntity
  8
0
100
AcDbBlockEnd
  0
BLOCK
  5
238
330
1E9
100
AcDbEntity
  8
0
100
AcDbBlockBegin
  2
radiatore120
 70
     0
 10
0.0
 20
0.0
 30
0.0
  3
radiatore120
  1

  0
ARC
  5
1EA
330
1E9
100
AcDbEntity
  8
dimensioni
100
AcDbCircle
 10
0.0800000000000001
 20
0.1300000000000008
 30
0.0
 40
0.02
100
AcDbArc
 50
0.0
 51
90.0
  0
LINE
  5
1EB
330
1E9
100
AcDbEntity
  8
dimensioni
100
AcDbLine
 10
0.1000000000000001
 20
0.0199999999999996
 30
0.0
 11
0.1000000000000001
 21
0.1300000000000008
 31
0.0
  0
ARC
  5
1EC
330
1E9
100
AcDbEntity
  8
dimensioni
100
AcDbCircle
 10
0.0800000000000001
 20
0.0199999999999996
 30
0.0
 40
0.02
100
AcDbArc
 50
270.0
 51
0.0
  0
ARC
  5
1ED
330
1E9
100
AcDbEntity
  8
dimensioni
100
AcDbCircle
 10
0.1200000000000001
 20
0.0199999999999996
 30
0.0
 40
0.02
100
AcDbArc
 50
180.0
 51
270.0
  0
LINE
  5
1EE
330
1E9
100
AcDbEntity
  8
dimensioni
100
AcDbLine
 10
0.1200000000000001
 20
0.0
 30
0.0
 11
0.1800000000000002
 21
0.0
 31
0.0
  0
ARC
  5
1EF
330
1E9
100
AcDbEntity
  8
dimensioni
100
AcDbCircle
 10
0.1800000000000002
 20
0.0199999999999996
 30
0.0
 40
0.02
100
AcDbArc
 50
270.0
 51
0.0
  0
LINE
  5
1F0
330
1E9
100
AcDbEntity
  8
dimensioni
100
AcDbLine
 10
0.2000000000000002
 20
0.0199999999999996
 30
0.0
 11
0.2000000000000002
 21
0.1300000000000008
 31
0.0
  0
ARC
  5
1F1
330
1E9
100
AcDbEntity
  8
dimensioni
100
AcDbCircle
 10
0.1800000000000002
 20
0.1300000000000008
 30
0.0
 40
0.02
100
AcDbArc
 50
0.0
 51
90.0
  0
LINE
  5
1F2
330
1E9
100
AcDbEntity
  8
dimensioni
100
AcDbLine
 10
0.1800000000000002
 20
0.1500000000000003
 30
0.0
 11
0.1200000000000001
 21
0.1500000000000003
 31
0.0
  0
ARC
  5
1F3
330
1E9
100
AcDbEntity
  8
dimensioni
100
AcDbCircle
 10
0.1200000000000001
 20
0.1300000000000008
 30
0.0
 40
0.02
100
AcDbArc
 50
90.0
 51
180.0
  0
ARC
  5
1F4
330
1E9
100
AcDbEntity
  8
dimensioni
100
AcDbCircle
 10
0.2200000000000002
 20
0.0199999999999996
 30
0.0
 40
0.02
100
AcDbArc
 50
180.0
 51
270.0
  0
LINE
  5
1F5
330
1E9
100
AcDbEntity
  8
dimensioni
100
AcDbLine
 10
0.2200000000000002
 20
0.0
 30
0.0
 11
0.2800000000000002
 21
0.0
 31
0.0
  0
ARC
  5
1F6
330
1E9
100
AcDbEntity
  8
dimensioni
100
AcDbCircle
 10
0.2800000000000002
 20
0.0199999999999996
 30
0.0
 40
0.02
100
AcDbArc
 50
270.0
 51
0.0
  0
LINE
  5
1F7
330
1E9
100
AcDbEntity
  8
dimensioni
100
AcDbLine
 10
0.3000000000000003
 20
0.0199999999999996
 30
0.0
 11
0.3000000000000003
 21
0.1300000000000008
 31
0.0
  0
ARC
  5
1F8
330
1E9
100
AcDbEntity
  8
dimensioni
100
AcDbCircle
 10
0.2800000000000002
 20
0.1300000000000008
 30
0.0
 40
0.02
100
AcDbArc
 50
0.0
 51
90.0
  0
LINE
  5
1F9
330
1E9
100
AcDbEntity
  8
dimensioni
100
AcDbLine
 10
0.2800000000000002
 20
0.1500000000000003
 30
0.0
 11
0.2200000000000002
 21
0.1500000000000003
 31
0.0
  0
ARC
  5
1FA
330
1E9
100
AcDbEntity
  8
dimensioni
100
AcDbCircle
 10
0.2200000000000002
 20
0.1300000000000008
 30
0.0
 40
0.02
100
AcDbArc
 50
90.0
 51
180.0
  0
ARC
  5
1FB
330
1E9
100
AcDbEntity
  8
dimensioni
100
AcDbCircle
 10
0.3200000000000003
 20
0.0199999999999996
 30
0.0
 40
0.02
100
AcDbArc
 50
180.0
 51
270.0
  0
LINE
  5
1FC
330
1E9
100
AcDbEntity
  8
dimensioni
100
AcDbLine
 10
0.3200000000000003
 20
0.0
 30
0.0
 11
0.3799999999999999
 21
0.0
 31
0.0
  0
ARC
  5
1FD
330
1E9
100
AcDbEntity
  8
dimensioni
100
AcDbCircle
 10
0.3799999999999999
 20
0.0199999999999996
 30
0.0
 40
0.02
100
AcDbArc
 50
270.0
 51
0.0
  0
LINE
  5
1FE
330
1E9
100
AcDbEntity
  8
dimensioni
100
AcDbLine
 10
0.4000000000000004
 20
0.0199999999999996
 30
0.0
 11
0.4000000000000004
 21
0.1300000000000008
 31
0.0
  0
ARC
  5
1FF
330
1E9
100
AcDbEntity
  8
dimensioni
100
AcDbCircle
 10
0.3799999999999999
 20
0.1300000000000008
 30
0.0
 40
0.02
100
AcDbArc
 50
0.0
 51
90.0
  0
LINE
  5
200
330
1E9
100
AcDbEntity
  8
dimensioni
100
AcDbLine
 10
0.3799999999999999
 20
0.1500000000000003
 30
0.0
 11
0.3200000000000003
 21
0.1500000000000003
 31
0.0
  0
ARC
  5
201
330
1E9
100
AcDbEntity
  8
dimensioni
100
AcDbCircle
 10
0.3200000000000003
 20
0.1300000000000008
 30
0.0
 40
0.02
100
AcDbArc
 50
90.0
 51
180.0
  0
ARC
  5
202
330
1E9
100
AcDbEntity
  8
dimensioni
100
AcDbCircle
 10
0.42
 20
0.0199999999999996
 30
0.0
 40
0.02
100
AcDbArc
 50
180.0
 51
270.0
  0
LINE
  5
203
330
1E9
100
AcDbEntity
  8
dimensioni
100
AcDbLine
 10
0.42
 20
0.0
 30
0.0
 11
0.48
 21
0.0
 31
0.0
  0
ARC
  5
204
330
1E9
100
AcDbEntity
  8
dimensioni
100
AcDbCircle
 10
0.48
 20
0.0199999999999996
 30
0.0
 40
0.02
100
AcDbArc
 50
270.0
 51
0.0
  0
LINE
  5
205
330
1E9
100
AcDbEntity
  8
dimensioni
100
AcDbLine
 10
0.5
 20
0.0199999999999996
 30
0.0
 11
0.5
 21
0.1300000000000008
 31
0.0
  0
ARC
  5
206
330
1E9
100
AcDbEntity
  8
dimensioni
100
AcDbCircle
 10
0.48
 20
0.1300000000000008
 30
0.0
 40
0.02
100
AcDbArc
 50
0.0
 51
90.0
  0
LINE
  5
207
330
1E9
100
AcDbEntity
  8
dimensioni
100
AcDbLine
 10
0.48
 20
0.1500000000000003
 30
0.0
 11
0.42
 21
0.1500000000000003
 31
0.0
  0
ARC
  5
208
330
1E9
100
AcDbEntity
  8
dimensioni
100
AcDbCircle
 10
0.42
 20
0.1300000000000008
 30
0.0
 40
0.02
100
AcDbArc
 50
90.0
 51
180.0
  0
ARC
  5
209
330
1E9
100
AcDbEntity
  8
dimensioni
100
AcDbCircle
 10
0.5200000000000001
 20
0.0199999999999996
 30
0.0
 40
0.02
100
AcDbArc
 50
180.0
 51
270.0
  0
LINE
  5
20A
330
1E9
100
AcDbEntity
  8
dimensioni
100
AcDbLine
 10
0.5200000000000001
 20
0.0
 30
0.0
 11
0.5800000000000001
 21
0.0
 31
0.0
  0
ARC
  5
20B
330
1E9
100
AcDbEntity
  8
dimensioni
100
AcDbCircle
 10
0.5800000000000001
 20
0.0199999999999996
 30
0.0
 40
0.02
100
AcDbArc
 50
270.0
 51
0.0
  0
LINE
  5
20C
330
1E9
100
AcDbEntity
  8
dimensioni
100
AcDbLine
 10
0.6000000000000001
 20
0.0199999999999996
 30
0.0
 11
0.6000000000000001
 21
0.1300000000000008
 31
0.0
  0
ARC
  5
20D
330
1E9
100
AcDbEntity
  8
dimensioni
100
AcDbCircle
 10
0.5800000000000001
 20
0.1300000000000008
 30
0.0
 40
0.02
100
AcDbArc
 50
0.0
 51
90.0
  0
LINE
  5
20E
330
1E9
100
AcDbEntity
  8
dimensioni
100
AcDbLine
 10
0.5800000000000001
 20
0.1500000000000003
 30
0.0
 11
0.5200000000000001
 21
0.1500000000000003
 31
0.0
  0
ARC
  5
20F
330
1E9
100
AcDbEntity
  8
dimensioni
100
AcDbCircle
 10
0.5200000000000001
 20
0.1300000000000008
 30
0.0
 40
0.02
100
AcDbArc
 50
90.0
 51
180.0
  0
ARC
  5
210
330
1E9
100
AcDbEntity
  8
dimensioni
100
AcDbCircle
 10
0.6200000000000001
 20
0.0199999999999996
 30
0.0
 40
0.02
100
AcDbArc
 50
180.0
 51
270.0
  0
LINE
  5
211
330
1E9
100
AcDbEntity
  8
dimensioni
100
AcDbLine
 10
0.6200000000000001
 20
0.0
 30
0.0
 11
0.6800000000000002
 21
0.0
 31
0.0
  0
ARC
  5
212
330
1E9
100
AcDbEntity
  8
dimensioni
100
AcDbCircle
 10
0.6800000000000002
 20
0.0199999999999996
 30
0.0
 40
0.02
100
AcDbArc
 50
270.0
 51
0.0
  0
LINE
  5
213
330
1E9
100
AcDbEntity
  8
dimensioni
100
AcDbLine
 10
0.7000000000000002
 20
0.0199999999999996
 30
0.0
 11
0.7000000000000002
 21
0.1300000000000008
 31
0.0
  0
ARC
  5
214
330
1E9
100
AcDbEntity
  8
dimensioni
100
AcDbCircle
 10
0.6800000000000002
 20
0.1300000000000008
 30
0.0
 40
0.02
100
AcDbArc
 50
0.0
 51
90.0
  0
LINE
  5
215
330
1E9
100
AcDbEntity
  8
dimensioni
100
AcDbLine
 10
0.6800000000000002
 20
0.1500000000000003
 30
0.0
 11
0.6200000000000001
 21
0.1500000000000003
 31
0.0
  0
ARC
  5
216
330
1E9
100
AcDbEntity
  8
dimensioni
100
AcDbCircle
 10
0.6200000000000001
 20
0.1300000000000008
 30
0.0
 40
0.02
100
AcDbArc
 50
90.0
 51
180.0
  0
ARC
  5
217
330
1E9
100
AcDbEntity
  8
dimensioni
100
AcDbCircle
 10
0.7200000000000002
 20
0.0199999999999996
 30
0.0
 40
0.02
100
AcDbArc
 50
180.0
 51
270.0
  0
LINE
  5
218
330
1E9
100
AcDbEntity
  8
dimensioni
100
AcDbLine
 10
0.7200000000000002
 20
0.0
 30
0.0
 11
0.7800000000000003
 21
0.0
 31
0.0
  0
ARC
  5
219
330
1E9
100
AcDbEntity
  8
dimensioni
100
AcDbCircle
 10
0.7800000000000003
 20
0.0199999999999996
 30
0.0
 40
0.02
100
AcDbArc
 50
270.0
 51
0.0
  0
LINE
  5
21A
330
1E9
100
AcDbEntity
  8
dimensioni
100
AcDbLine
 10
0.8000000000000003
 20
0.0199999999999996
 30
0.0
 11
0.8000000000000003
 21
0.1300000000000008
 31
0.0
  0
ARC
  5
21B
330
1E9
100
AcDbEntity
  8
dimensioni
100
AcDbCircle
 10
0.7800000000000003
 20
0.1300000000000008
 30
0.0
 40
0.02
100
AcDbArc
 50
0.0
 51
90.0
  0
LINE
  5
21C
330
1E9
100
AcDbEntity
  8
dimensioni
100
AcDbLine
 10
0.7800000000000003
 20
0.1500000000000003
 30
0.0
 11
0.7200000000000002
 21
0.1500000000000003
 31
0.0
  0
ARC
  5
21D
330
1E9
100
AcDbEntity
  8
dimensioni
100
AcDbCircle
 10
0.7200000000000002
 20
0.1300000000000008
 30
0.0
 40
0.02
100
AcDbArc
 50
90.0
 51
180.0
  0
ARC
  5
21E
330
1E9
100
AcDbEntity
  8
dimensioni
100
AcDbCircle
 10
0.8200000000000002
 20
0.0199999999999996
 30
0.0
 40
0.02
100
AcDbArc
 50
180.0
 51
270.0
  0
LINE
  5
21F
330
1E9
100
AcDbEntity
  8
dimensioni
100
AcDbLine
 10
0.8200000000000002
 20
0.0
 30
0.0
 11
0.88
 21
0.0
 31
0.0
  0
ARC
  5
220
330
1E9
100
AcDbEntity
  8
dimensioni
100
AcDbCircle
 10
0.88
 20
0.0199999999999996
 30
0.0
 40
0.02
100
AcDbArc
 50
270.0
 51
0.0
  0
LINE
  5
221
330
1E9
100
AcDbEntity
  8
dimensioni
100
AcDbLine
 10
0.9000000000000001
 20
0.0199999999999996
 30
0.0
 11
0.9000000000000001
 21
0.1300000000000008
 31
0.0
  0
ARC
  5
222
330
1E9
100
AcDbEntity
  8
dimensioni
100
AcDbCircle
 10
0.88
 20
0.1300000000000008
 30
0.0
 40
0.02
100
AcDbArc
 50
0.0
 51
90.0
  0
LINE
  5
223
330
1E9
100
AcDbEntity
  8
dimensioni
100
AcDbLine
 10
0.88
 20
0.1500000000000003
 30
0.0
 11
0.8200000000000002
 21
0.1500000000000003
 31
0.0
  0
ARC
  5
224
330
1E9
100
AcDbEntity
  8
dimensioni
100
AcDbCircle
 10
0.8200000000000002
 20
0.1300000000000008
 30
0.0
 40
0.02
100
AcDbArc
 50
90.0
 51
180.0
  0
ARC
  5
225
330
1E9
100
AcDbEntity
  8
dimensioni
100
AcDbCircle
 10
0.9199999999999999
 20
0.0199999999999996
 30
0.0
 40
0.02
100
AcDbArc
 50
180.0
 51
270.0
  0
LINE
  5
226
330
1E9
100
AcDbEntity
  8
dimensioni
100
AcDbLine
 10
0.9199999999999999
 20
0.0
 30
0.0
 11
0.98
 21
0.0
 31
0.0
  0
ARC
  5
227
330
1E9
100
AcDbEntity
  8
dimensioni
100
AcDbCircle
 10
0.98
 20
0.0199999999999996
 30
0.0
 40
0.02
100
AcDbArc
 50
270.0
 51
0.0
  0
LINE
  5
228
330
1E9
100
AcDbEntity
  8
dimensioni
100
AcDbLine
 10
1.0
 20
0.0199999999999996
 30
0.0
 11
1.0
 21
0.1300000000000008
 31
0.0
  0
ARC
  5
229
330
1E9
100
AcDbEntity
  8
dimensioni
100
AcDbCircle
 10
0.98
 20
0.1300000000000008
 30
0.0
 40
0.02
100
AcDbArc
 50
0.0
 51
90.0
  0
LINE
  5
22A
330
1E9
100
AcDbEntity
  8
dimensioni
100
AcDbLine
 10
0.98
 20
0.1500000000000003
 30
0.0
 11
0.9199999999999999
 21
0.1500000000000003
 31
0.0
  0
ARC
  5
22B
330
1E9
100
AcDbEntity
  8
dimensioni
100
AcDbCircle
 10
0.9199999999999999
 20
0.1300000000000008
 30
0.0
 40
0.02
100
AcDbArc
 50
90.0
 51
180.0
  0
ARC
  5
22C
330
1E9
100
AcDbEntity
  8
dimensioni
100
AcDbCircle
 10
1.02
 20
0.0199999999999996
 30
0.0
 40
0.02
100
AcDbArc
 50
180.0
 51
270.0
  0
LINE
  5
22D
330
1E9
100
AcDbEntity
  8
dimensioni
100
AcDbLine
 10
1.02
 20
0.0
 30
0.0
 11
1.08
 21
0.0
 31
0.0
  0
ARC
  5
22E
330
1E9
100
AcDbEntity
  8
dimensioni
100
AcDbCircle
 10
1.08
 20
0.0199999999999996
 30
0.0
 40
0.02
100
AcDbArc
 50
270.0
 51
0.0
  0
LINE
  5
22F
330
1E9
100
AcDbEntity
  8
dimensioni
100
AcDbLine
 10
1.1
 20
0.0199999999999996
 30
0.0
 11
1.1
 21
0.1300000000000008
 31
0.0
  0
ARC
  5
230
330
1E9
100
AcDbEntity
  8
dimensioni
100
AcDbCircle
 10
1.08
 20
0.1300000000000008
 30
0.0
 40
0.02
100
AcDbArc
 50
0.0
 51
90.0
  0
LINE
  5
231
330
1E9
100
AcDbEntity
  8
dimensioni
100
AcDbLine
 10
1.08
 20
0.1500000000000003
 30
0.0
 11
1.02
 21
0.1500000000000003
 31
0.0
  0
ARC
  5
232
330
1E9
100
AcDbEntity
  8
dimensioni
100
AcDbCircle
 10
1.02
 20
0.1300000000000008
 30
0.0
 40
0.02
100
AcDbArc
 50
90.0
 51
180.0
  0
LINE
  5
233
330
1E9
100
AcDbEntity
  8
dimensioni
100
AcDbLine
 10
0.0
 20
0.1300000000000008
 30
0.0
 11
0.0
 21
0.0199999999999996
 31
0.0
  0
LINE
  5
234
330
1E9
100
AcDbEntity
  8
dimensioni
100
AcDbLine
 10
0.0800000000000001
 20
0.1500000000000003
 30
0.0
 11
0.02
 21
0.1500000000000003
 31
0.0
  0
LINE
  5
235
330
1E9
100
AcDbEntity
  8
dimensioni
100
AcDbLine
 10
0.02
 20
0.0
 30
0.0
 11
0.0800000000000001
 21
0.0
 31
0.0
  0
ARC
  5
236
330
1E9
100
AcDbEntity
  8
dimensioni
100
AcDbCircle
 10
0.02
 20
0.1300000000000008
 30
0.0
 40
0.02
100
AcDbArc
 50
90.0
 51
180.0
  0
ARC
  5
237
330
1E9
100
AcDbEntity
  8
dimensioni
100
AcDbCircle
 10
0.02
 20
0.0199999999999996
 30
0.0
 40
0.02
100
AcDbArc
 50
180.0
 51
270.0
  0
ENDBLK
  5
239
330
1E9
100
AcDbEntity
  8
0
100
AcDbBlockEnd
  0
BLOCK
  5
37F
330
353
100
AcDbEntity
  8
0
100
AcDbBlockBegin
  2
radiatore0.6
 70
     0
 10
0.0
 20
0.0
 30
0.0
  3
radiatore0.6
  1

  0
LINE
  5
383
330
353
100
AcDbEntity
  8
dimensioni
100
AcDbLine
 10
0.5999999999999997
 20
0.0199999999999996
 30
0.0
 11
0.5999999999999997
 21
0.1300000000000008
 31
0.0
  0
LINE
  5
384
330
353
100
AcDbEntity
  8
dimensioni
100
AcDbLine
 10
0.5
 20
0.0199999999999996
 30
0.0
 11
0.5
 21
0.1300000000000008
 31
0.0
  0
LINE
  5
385
330
353
100
AcDbEntity
  8
dimensioni
100
AcDbLine
 10
0.4000000000000004
 20
0.0199999999999996
 30
0.0
 11
0.4000000000000004
 21
0.1300000000000008
 31
0.0
  0
LINE
  5
386
330
353
100
AcDbEntity
  8
dimensioni
100
AcDbLine
 10
0.3000000000000007
 20
0.0199999999999996
 30
0.0
 11
0.3000000000000007
 21
0.1300000000000008
 31
0.0
  0
LINE
  5
387
330
353
100
AcDbEntity
  8
dimensioni
100
AcDbLine
 10
0.1999999999999993
 20
0.0199999999999996
 30
0.0
 11
0.1999999999999993
 21
0.1300000000000008
 31
0.0
  0
LINE
  5
388
330
353
100
AcDbEntity
  8
dimensioni
100
AcDbLine
 10
0.0999999999999997
 20
0.0199999999999996
 30
0.0
 11
0.0999999999999997
 21
0.1300000000000008
 31
0.0
  0
ARC
  5
389
330
353
100
AcDbEntity
  8
dimensioni
100
AcDbCircle
 10
0.5800000000000001
 20
0.0199999999999996
 30
0.0
 40
0.02
100
AcDbArc
 50
270.0
 51
0.0
  0
LINE
  5
38A
330
353
100
AcDbEntity
  8
dimensioni
100
AcDbLine
 10
0.5199999999999996
 20
0.0
 30
0.0
 11
0.5800000000000001
 21
0.0
 31
0.0
  0
ARC
  5
38B
330
353
100
AcDbEntity
  8
dimensioni
100
AcDbCircle
 10
0.5199999999999996
 20
0.0199999999999996
 30
0.0
 40
0.02
100
AcDbArc
 50
180.0
 51
270.0
  0
ARC
  5
38C
330
353
100
AcDbEntity
  8
dimensioni
100
AcDbCircle
 10
0.4800000000000005
 20
0.0199999999999996
 30
0.0
 40
0.02
100
AcDbArc
 50
270.0
 51
0.0
  0
LINE
  5
38D
330
353
100
AcDbEntity
  8
dimensioni
100
AcDbLine
 10
0.42
 20
0.0
 30
0.0
 11
0.4800000000000005
 21
0.0
 31
0.0
  0
ARC
  5
38E
330
353
100
AcDbEntity
  8
dimensioni
100
AcDbCircle
 10
0.42
 20
0.0199999999999996
 30
0.0
 40
0.02
100
AcDbArc
 50
180.0
 51
270.0
  0
ARC
  5
38F
330
353
100
AcDbEntity
  8
dimensioni
100
AcDbCircle
 10
0.379999999999999
 20
0.0199999999999996
 30
0.0
 40
0.02
100
AcDbArc
 50
270.0
 51
0.0
  0
LINE
  5
390
330
353
100
AcDbEntity
  8
dimensioni
100
AcDbLine
 10
0.3200000000000003
 20
0.0
 30
0.0
 11
0.379999999999999
 21
0.0
 31
0.0
  0
ARC
  5
391
330
353
100
AcDbEntity
  8
dimensioni
100
AcDbCircle
 10
0.3200000000000003
 20
0.0199999999999996
 30
0.0
 40
0.02
100
AcDbArc
 50
180.0
 51
270.0
  0
ARC
  5
392
330
353
100
AcDbEntity
  8
dimensioni
100
AcDbCircle
 10
0.2800000000000011
 20
0.0199999999999996
 30
0.0
 40
0.02
100
AcDbArc
 50
270.0
 51
0.0
  0
LINE
  5
393
330
353
100
AcDbEntity
  8
dimensioni
100
AcDbLine
 10
0.2200000000000006
 20
0.0
 30
0.0
 11
0.2800000000000011
 21
0.0
 31
0.0
  0
ARC
  5
394
330
353
100
AcDbEntity
  8
dimensioni
100
AcDbCircle
 10
0.2200000000000006
 20
0.0199999999999996
 30
0.0
 40
0.02
100
AcDbArc
 50
180.0
 51
270.0
  0
ARC
  5
395
330
353
100
AcDbEntity
  8
dimensioni
100
AcDbCircle
 10
0.1799999999999997
 20
0.0199999999999996
 30
0.0
 40
0.02
100
AcDbArc
 50
270.0
 51
0.0
  0
LINE
  5
396
330
353
100
AcDbEntity
  8
dimensioni
100
AcDbLine
 10
0.120000000000001
 20
0.0
 30
0.0
 11
0.1799999999999997
 21
0.0
 31
0.0
  0
ARC
  5
397
330
353
100
AcDbEntity
  8
dimensioni
100
AcDbCircle
 10
0.120000000000001
 20
0.0199999999999996
 30
0.0
 40
0.02
100
AcDbArc
 50
180.0
 51
270.0
  0
ARC
  5
398
330
353
100
AcDbEntity
  8
dimensioni
100
AcDbCircle
 10
0.0800000000000001
 20
0.0199999999999996
 30
0.0
 40
0.02
100
AcDbArc
 50
270.0
 51
0.0
  0
ARC
  5
399
330
353
100
AcDbEntity
  8
dimensioni
100
AcDbCircle
 10
0.5199999999999996
 20
0.1300000000000008
 30
0.0
 40
0.02
100
AcDbArc
 50
90.0
 51
180.0
  0
LINE
  5
39A
330
353
100
AcDbEntity
  8
dimensioni
100
AcDbLine
 10
0.5800000000000001
 20
0.1500000000000003
 30
0.0
 11
0.5199999999999996
 21
0.1500000000000003
 31
0.0
  0
ARC
  5
39B
330
353
100
AcDbEntity
  8
dimensioni
100
AcDbCircle
 10
0.5800000000000001
 20
0.1300000000000008
 30
0.0
 40
0.02
100
AcDbArc
 50
0.0
 51
90.0
  0
ARC
  5
39C
330
353
100
AcDbEntity
  8
dimensioni
100
AcDbCircle
 10
0.42
 20
0.1300000000000008
 30
0.0
 40
0.02
100
AcDbArc
 50
90.0
 51
180.0
  0
LINE
  5
39D
330
353
100
AcDbEntity
  8
dimensioni
100
AcDbLine
 10
0.4800000000000005
 20
0.1500000000000003
 30
0.0
 11
0.42
 21
0.1500000000000003
 31
0.0
  0
ARC
  5
39E
330
353
100
AcDbEntity
  8
dimensioni
100
AcDbCircle
 10
0.4800000000000005
 20
0.1300000000000008
 30
0.0
 40
0.02
100
AcDbArc
 50
0.0
 51
90.0
  0
ARC
  5
39F
330
353
100
AcDbEntity
  8
dimensioni
100
AcDbCircle
 10
0.3200000000000003
 20
0.1300000000000008
 30
0.0
 40
0.02
100
AcDbArc
 50
90.0
 51
180.0
  0
LINE
  5
3A0
330
353
100
AcDbEntity
  8
dimensioni
100
AcDbLine
 10
0.379999999999999
 20
0.1500000000000003
 30
0.0
 11
0.3200000000000003
 21
0.1500000000000003
 31
0.0
  0
ARC
  5
3A1
330
353
100
AcDbEntity
  8
dimensioni
100
AcDbCircle
 10
0.379999999999999
 20
0.1300000000000008
 30
0.0
 40
0.02
100
AcDbArc
 50
0.0
 51
90.0
  0
ARC
  5
3A2
330
353
100
AcDbEntity
  8
dimensioni
100
AcDbCircle
 10
0.2200000000000006
 20
0.1300000000000008
 30
0.0
 40
0.02
100
AcDbArc
 50
90.0
 51
180.0
  0
LINE
  5
3A3
330
353
100
AcDbEntity
  8
dimensioni
100
AcDbLine
 10
0.2800000000000011
 20
0.1500000000000003
 30
0.0
 11
0.2200000000000006
 21
0.1500000000000003
 31
0.0
  0
ARC
  5
3A4
330
353
100
AcDbEntity
  8
dimensioni
100
AcDbCircle
 10
0.2800000000000011
 20
0.1300000000000008
 30
0.0
 40
0.02
100
AcDbArc
 50
0.0
 51
90.0
  0
ARC
  5
3A5
330
353
100
AcDbEntity
  8
dimensioni
100
AcDbCircle
 10
0.120000000000001
 20
0.1300000000000008
 30
0.0
 40
0.02
100
AcDbArc
 50
90.0
 51
180.0
  0
LINE
  5
3A6
330
353
100
AcDbEntity
  8
dimensioni
100
AcDbLine
 10
0.1799999999999997
 20
0.1500000000000003
 30
0.0
 11
0.120000000000001
 21
0.1500000000000003
 31
0.0
  0
ARC
  5
3A7
330
353
100
AcDbEntity
  8
dimensioni
100
AcDbCircle
 10
0.1799999999999997
 20
0.1300000000000008
 30
0.0
 40
0.02
100
AcDbArc
 50
0.0
 51
90.0
  0
ARC
  5
3A8
330
353
100
AcDbEntity
  8
dimensioni
100
AcDbCircle
 10
0.0800000000000001
 20
0.1300000000000008
 30
0.0
 40
0.02
100
AcDbArc
 50
0.0
 51
90.0
  0
LINE
  5
3A9
330
353
100
AcDbEntity
  8
dimensioni
100
AcDbLine
 10
0.0800000000000001
 20
0.1500000000000003
 30
0.0
 11
0.0199999999999996
 21
0.1500000000000003
 31
0.0
  0
ARC
  5
3AA
330
353
100
AcDbEntity
  8
dimensioni
100
AcDbCircle
 10
0.0199999999999996
 20
0.1300000000000008
 30
0.0
 40
0.02
100
AcDbArc
 50
90.0
 51
180.0
  0
LINE
  5
3AB
330
353
100
AcDbEntity
  8
dimensioni
100
AcDbLine
 10
0.0
 20
0.1300000000000008
 30
0.0
 11
0.0
 21
0.0199999999999996
 31
0.0
  0
ARC
  5
3AC
330
353
100
AcDbEntity
  8
dimensioni
100
AcDbCircle
 10
0.0199999999999996
 20
0.0199999999999996
 30
0.0
 40
0.02
100
AcDbArc
 50
180.0
 51
270.0
  0
LINE
  5
3AD
330
353
100
AcDbEntity
  8
dimensioni
100
AcDbLine
 10
0.0199999999999996
 20
0.0
 30
0.0
 11
0.0800000000000001
 21
0.0
 31
0.0
  0
ENDBLK
  5
380
330
353
100
AcDbEntity
  8
0
100
AcDbBlockEnd
  0
BLOCK
  5
53A
330
52F
100
AcDbEntity
  8
0
100
AcDbBlockBegin
  2
*D5
 70
     1
 10
0.0
 20
0.0
 30
0.0
  3
*D5
  1

  0
LINE
  5
530
330
52F
100
AcDbEntity
  8
dimensioni
 62
     0
440
 16777216
370
    -2
100
AcDbLine
 10
-0.0625
 20
0.0
 30
0.0
 11
-1.108959464580618
 21
0.0000000000000001
 31
0.0
  0
LINE
  5
531
330
52F
100
AcDbEntity
  8
dimensioni
 62
     0
440
 16777216
370
    -2
100
AcDbLine
 10
0.2233622126667952
 20
4.221695493603958
 30
0.0
 11
-1.108959464580618
 21
4.221695493603958
 31
0.0
  0
LINE
  5
532
330
52F
100
AcDbEntity
  8
dimensioni
 62
     0
440
 16777216
370
    -2
100
AcDbLine
 10
-0.9289594645806184
 20
0.18
 30
0.0
 11
-0.9289594645806182
 21
1.930847746801979
 31
0.0
  0
LINE
  5
533
330
52F
100
AcDbEntity
  8
dimensioni
 62
     0
440
 16777216
370
    -2
100
AcDbLine
 10
-0.9289594645806181
 20
4.041695493603958
 30
0.0
 11
-0.9289594645806182
 21
2.290847746801978
 31
0.0
  0
SOLID
  5
534
330
52F
100
AcDbEntity
  8
dimensioni
 62
     0
440
 16777216
100
AcDbTrace
 10
-0.9589594645806183
 20
0.18
 30
0.0
 11
-0.8989594645806183
 21
0.18
 31
0.0
 12
-0.9289594645806184
 22
0.0000000000000001
 32
0.0
 13
-0.9289594645806184
 23
0.0000000000000001
 33
0.0
  0
SOLID
  5
535
330
52F
100
AcDbEntity
  8
dimensioni
 62
     0
440
 16777216
100
AcDbTrace
 10
-0.8989594645806182
 20
4.041695493603958
 30
0.0
 11
-0.9589594645806181
 21
4.041695493603958
 31
0.0
 12
-0.9289594645806181
 22
4.221695493603958
 32
0.0
 13
-0.9289594645806181
 23
4.221695493603958
 33
0.0
  0
MTEXT
  5
536
330
52F
100
AcDbEntity
  8
dimensioni
 62
     0
440
 16777216
100
AcDbMText
 10
-0.9289594645806182
 20
2.110847746801979
 30
0.0
 40
0.18
 41
0.0
 46
0.0
 71
     5
 72
     1
  1
\A1;4.2
 73
     1
 44
1.0
  0
POINT
  5
537
330
52F
100
AcDbEntity
  8
Defpoints
 62
     0
440
 16777216
100
AcDbPoint
 10
0.0
 20
0.0
 30
0.0
  0
POINT
  5
538
330
52F
100
AcDbEntity
  8
Defpoints
 62
     0
440
 16777216
100
AcDbPoint
 10
0.2858622126667952
 20
4.221695493603958
 30
0.0
  0
POINT
  5
539
330
52F
100
AcDbEntity
  8
Defpoints
 62
     0
440
 16777216
100
AcDbPoint
 10
-0.9289594645806181
 20
4.221695493603958
 30
0.0
  0
ENDBLK
  5
53B
330
52F
100
AcDbEntity
  8
0
100
AcDbBlockEnd
  0
BLOCK
  5
54A
330
53F
100
AcDbEntity
  8
0
100
AcDbBlockBegin
  2
*D6
 70
     1
 10
0.0
 20
0.0
 30
0.0
  3
*D6
  1

  0
LINE
  5
540
330
53F
100
AcDbEntity
  8
dimensioni
 62
     0
440
 16777216
370
    -2
100
AcDbLine
 10
0.2233622126667952
 20
4.221695493603958
 30
0.0
 11
-1.108959464580618
 21
4.221695493603958
 31
0.0
  0
LINE
  5
541
330
53F
100
AcDbEntity
  8
dimensioni
 62
     0
440
 16777216
370
    -2
100
AcDbLine
 10
-0.0625
 20
12.0
 30
0.0
 11
-1.108959464580617
 21
12.0
 31
0.0
  0
LINE
  5
542
330
53F
100
AcDbEntity
  8
dimensioni
 62
     0
440
 16777216
370
    -2
100
AcDbLine
 10
-0.9289594645806181
 20
4.401695493603957
 30
0.0
 11
-0.9289594645806179
 21
7.93084774680198
 31
0.0
  0
LINE
  5
543
330
53F
100
AcDbEntity
  8
dimensioni
 62
     0
440
 16777216
370
    -2
100
AcDbLine
 10
-0.9289594645806177
 20
11.82
 30
0.0
 11
-0.9289594645806179
 21
8.290847746801979
 31
0.0
  0
SOLID
  5
544
330
53F
100
AcDbEntity
  8
dimensioni
 62
     0
440
 16777216
100
AcDbTrace
 10
-0.9589594645806181
 20
4.401695493603957
 30
0.0
 11
-0.8989594645806182
 21
4.401695493603957
 31
0.0
 12
-0.9289594645806181
 22
4.221695493603958
 32
0.0
 13
-0.9289594645806181
 23
4.221695493603958
 33
0.0
  0
SOLID
  5
545
330
53F
100
AcDbEntity
  8
dimensioni
 62
     0
440
 16777216
100
AcDbTrace
 10
-0.8989594645806176
 20
11.82
 30
0.0
 11
-0.9589594645806178
 21
11.82
 31
0.0
 12
-0.9289594645806177
 22
12.0
 32
0.0
 13
-0.9289594645806177
 23
12.0
 33
0.0
  0
MTEXT
  5
546
330
53F
100
AcDbEntity
  8
dimensioni
 62
     0
440
 16777216
100
AcDbMText
 10
-0.9289594645806179
 20
8.110847746801979
 30
0.0
 40
0.18
 41
0.0
 46
0.0
 71
     5
 72
     1
  1
\A1;7.8
 73
     1
 44
1.0
  0
POINT
  5
547
330
53F
100
AcDbEntity
  8
Defpoints
 62
     0
440
 16777216
100
AcDbPoint
 10
0.2858622126667952
 20
4.221695493603958
 30
0.0
  0
POINT
  5
548
330
53F
100
AcDbEntity
  8
Defpoints
 62
     0
440
 16777216
100
AcDbPoint
 10
0.0
 20
12.0
 30
0.0
  0
POINT
  5
549
330
53F
100
AcDbEntity
  8
Defpoints
 62
     0
440
 16777216
100
AcDbPoint
 10
-0.9289594645806177
 20
12.0
 30
0.0
  0
ENDBLK
  5
54B
330
53F
100
AcDbEntity
  8
0
100
AcDbBlockEnd
  0
BLOCK
  5
55A
330
54F
100
AcDbEntity
  8
0
100
AcDbBlockBegin
  2
*D7
 70
     1
 10
0.0
 20
0.0
 30
0.0
  3
*D7
  1

  0
LINE
  5
550
330
54F
100
AcDbEntity
  8
dimensioni
 62
     0
440
 16777216
370
    -2
100
AcDbLine
 10
-0.0625
 20
12.0625
 30
0.0
 11
-0.0625
 21
13.33684083448615
 31
0.0
  0
LINE
  5
551
330
54F
100
AcDbEntity
  8
dimensioni
 62
     0
440
 16777216
370
    -2
100
AcDbLine
 10
5.57
 20
11.7625
 30
0.0
 11
5.57
 21
13.33684083448615
 31
0.0
  0
LINE
  5
552
330
54F
100
AcDbEntity
  8
dimensioni
 62
     0
440
 16777216
370
    -2
100
AcDbLine
 10
0.1175
 20
13.15684083448615
 30
0.0
 11
2.483125
 21
13.15684083448615
 31
0.0
  0
LINE
  5
553
330
54F
100
AcDbEntity
  8
dimensioni
 62
     0
440
 16777216
370
    -2
100
AcDbLine
 10
5.39
 20
13.15684083448615
 30
0.0
 11
3.024375
 21
13.15684083448615
 31
0.0
  0
SOLID
  5
554
330
54F
100
AcDbEntity
  8
dimensioni
 62
     0
440
 16777216
100
AcDbTrace
 10
0.1175
 20
13.18684083448615
 30
0.0
 11
0.1175
 21
13.12684083448615
 31
0.0
 12
-0.0625
 22
13.15684083448615
 32
0.0
 13
-0.0625
 23
13.15684083448615
 33
0.0
  0
SOLID
  5
555
330
54F
100
AcDbEntity
  8
dimensioni
 62
     0
440
 16777216
100
AcDbTrace
 10
5.39
 20
13.12684083448615
 30
0.0
 11
5.39
 21
13.18684083448615
 31
0.0
 12
5.57
 22
13.15684083448615
 32
0.0
 13
5.57
 23
13.15684083448615
 33
0.0
  0
MTEXT
  5
556
330
54F
100
AcDbEntity
  8
dimensioni
 62
     0
440
 16777216
100
AcDbMText
 10
2.75375
 20
13.15684083448615
 30
0.0
 40
0.18
 41
0.0
 46
0.0
 71
     5
 72
     1
  1
\A1;5.6
 73
     1
 44
1.0
  0
POINT
  5
557
330
54F
100
AcDbEntity
  8
Defpoints
 62
     0
440
 16777216
100
AcDbPoint
 10
-0.0625
 20
12.0
 30
0.0
  0
POINT
  5
558
330
54F
100
AcDbEntity
  8
Defpoints
 62
     0
440
 16777216
100
AcDbPoint
 10
5.57
 20
11.7
 30
0.0
  0
POINT
  5
559
330
54F
100
AcDbEntity
  8
Defpoints
 62
     0
440
 16777216
100
AcDbPoint
 10
5.57
 20
13.15684083448615
 30
0.0
  0
ENDBLK
  5
55B
330
54F
100
AcDbEntity
  8
0
100
AcDbBlockEnd
  0
BLOCK
  5
56A
330
55F
100
AcDbEntity
  8
0
100
AcDbBlockBegin
  2
*D8
 70
     1
 10
0.0
 20
0.0
 30
0.0
  3
*D8
  1

  0
LINE
  5
560
330
55F
100
AcDbEntity
  8
dimensioni
 62
     0
440
 16777216
370
    -2
100
AcDbLine
 10
5.57
 20
11.7625
 30
0.0
 11
5.57
 21
13.33684083448615
 31
0.0
  0
LINE
  5
561
330
55F
100
AcDbEntity
  8
dimensioni
 62
     0
440
 16777216
370
    -2
100
AcDbLine
 10
7.04
 20
11.7625
 30
0.0
 11
7.04
 21
13.33684083448615
 31
0.0
  0
LINE
  5
562
330
55F
100
AcDbEntity
  8
dimensioni
 62
     0
440
 16777216
370
    -2
100
AcDbLine
 10
5.75
 20
13.15684083448615
 30
0.0
 11
6.064999999999999
 21
13.15684083448615
 31
0.0
  0
LINE
  5
563
330
55F
100
AcDbEntity
  8
dimensioni
 62
     0
440
 16777216
370
    -2
100
AcDbLine
 10
6.86
 20
13.15684083448615
 30
0.0
 11
6.544999999999999
 21
13.15684083448615
 31
0.0
  0
SOLID
  5
564
330
55F
100
AcDbEntity
  8
dimensioni
 62
     0
440
 16777216
100
AcDbTrace
 10
5.75
 20
13.18684083448615
 30
0.0
 11
5.75
 21
13.12684083448615
 31
0.0
 12
5.57
 22
13.15684083448615
 32
0.0
 13
5.57
 23
13.15684083448615
 33
0.0
  0
SOLID
  5
565
330
55F
100
AcDbEntity
  8
dimensioni
 62
     0
440
 16777216
100
AcDbTrace
 10
6.86
 20
13.12684083448615
 30
0.0
 11
6.86
 21
13.18684083448615
 31
0.0
 12
7.04
 22
13.15684083448615
 32
0.0
 13
7.04
 23
13.15684083448615
 33
0.0
  0
MTEXT
  5
566
330
55F
100
AcDbEntity
  8
dimensioni
 62
     0
440
 16777216
100
AcDbMText
 10
6.304999999999999
 20
13.15684083448615
 30
0.0
 40
0.18
 41
0.0
 46
0.0
 71
     5
 72
     1
  1
\A1;1.5
 73
     1
 44
1.0
  0
POINT
  5
567
330
55F
100
AcDbEntity
  8
Defpoints
 62
     0
440
 16777216
100
AcDbPoint
 10
5.57
 20
11.7
 30
0.0
  0
POINT
  5
568
330
55F
100
AcDbEntity
  8
Defpoints
 62
     0
440
 16777216
100
AcDbPoint
 10
7.04
 20
11.7
 30
0.0
  0
POINT
  5
569
330
55F
100
AcDbEntity
  8
Defpoints
 62
     0
440
 16777216
100
AcDbPoint
 10
7.04
 20
13.15684083448615
 30
0.0
  0
ENDBLK
  5
56B
330
55F
100
AcDbEntity
  8
0
100
AcDbBlockEnd
  0
BLOCK
  5
57A
330
56F
100
AcDbEntity
  8
0
100
AcDbBlockBegin
  2
*D9
 70
     1
 10
0.0
 20
0.0
 30
0.0
  3
*D9
  1

  0
LINE
  5
570
330
56F
100
AcDbEntity
  8
dimensioni
 62
     0
440
 16777216
370
    -2
100
AcDbLine
 10
7.04
 20
11.7625
 30
0.0
 11
7.04
 21
13.33684083448615
 31
0.0
  0
LINE
  5
571
330
56F
100
AcDbEntity
  8
dimensioni
 62
     0
440
 16777216
370
    -2
100
AcDbLine
 10
8.949999999999999
 20
11.7625
 30
0.0
 11
8.949999999999999
 21
13.33684083448615
 31
0.0
  0
LINE
  5
572
330
56F
100
AcDbEntity
  8
dimensioni
 62
     0
440
 16777216
370
    -2
100
AcDbLine
 10
7.219999999999999
 20
13.15684083448615
 30
0.0
 11
7.754958333333332
 21
13.15684083448615
 31
0.0
  0
LINE
  5
573
330
56F
100
AcDbEntity
  8
dimensioni
 62
     0
440
 16777216
370
    -2
100
AcDbLine
 10
8.769999999999999
 20
13.15684083448615
 30
0.0
 11
8.235041666666665
 21
13.15684083448615
 31
0.0
  0
SOLID
  5
574
330
56F
100
AcDbEntity
  8
dimensioni
 62
     0
440
 16777216
100
AcDbTrace
 10
7.219999999999999
 20
13.18684083448615
 30
0.0
 11
7.219999999999999
 21
13.12684083448615
 31
0.0
 12
7.04
 22
13.15684083448615
 32
0.0
 13
7.04
 23
13.15684083448615
 33
0.0
  0
SOLID
  5
575
330
56F
100
AcDbEntity
  8
dimensioni
 62
     0
440
 16777216
100
AcDbTrace
 10
8.769999999999999
 20
13.12684083448615
 30
0.0
 11
8.769999999999999
 21
13.18684083448615
 31
0.0
 12
8.949999999999999
 22
13.15684083448615
 32
0.0
 13
8.949999999999999
 23
13.15684083448615
 33
0.0
  0
MTEXT
  5
576
330
56F
100
AcDbEntity
  8
dimensioni
 62
     0
440
 16777216
100
AcDbMText
 10
7.994999999999999
 20
13.15684083448615
 30
0.0
 40
0.18
 41
0.0
 46
0.0
 71
     5
 72
     1
  1
\A1;1.9
 73
     1
 44
1.0
  0
POINT
  5
577
330
56F
100
AcDbEntity
  8
Defpoints
 62
     0
440
 16777216
100
AcDbPoint
 10
7.04
 20
11.7
 30
0.0
  0
POINT
  5
578
330
56F
100
AcDbEntity
  8
Defpoints
 62
     0
440
 16777216
100
AcDbPoint
 10
8.949999999999999
 20
11.7
 30
0.0
  0
POINT
  5
579
330
56F
100
AcDbEntity
  8
Defpoints
 62
     0
440
 16777216
100
AcDbPoint
 10
8.949999999999999
 20
13.15684083448615
 30
0.0
  0
ENDBLK
  5
57B
330
56F
100
AcDbEntity
  8
0
100
AcDbBlockEnd
  0
BLOCK
  5
58A
330
57F
100
AcDbEntity
  8
0
100
AcDbBlockBegin
  2
*D10
 70
     1
 10
0.0
 20
0.0
 30
0.0
  3
*D10
  1

  0
LINE
  5
580
330
57F
100
AcDbEntity
  8
dimensioni
 62
     0
440
 16777216
370
    -2
100
AcDbLine
 10
8.949999999999999
 20
11.7625
 30
0.0
 11
8.949999999999999
 21
13.33684083448615
 31
0.0
  0
LINE
  5
581
330
57F
100
AcDbEntity
  8
dimensioni
 62
     0
440
 16777216
370
    -2
100
AcDbLine
 10
14.0
 20
12.0625
 30
0.0
 11
14.0
 21
13.33684083448615
 31
0.0
  0
LINE
  5
582
330
57F
100
AcDbEntity
  8
dimensioni
 62
     0
440
 16777216
370
    -2
100
AcDbLine
 10
9.129999999999999
 20
13.15684083448615
 30
0.0
 11
11.234375
 21
13.15684083448615
 31
0.0
  0
LINE
  5
583
330
57F
100
AcDbEntity
  8
dimensioni
 62
     0
440
 16777216
370
    -2
100
AcDbLine
 10
13.82
 20
13.15684083448615
 30
0.0
 11
11.715625
 21
13.15684083448615
 31
0.0
  0
SOLID
  5
584
330
57F
100
AcDbEntity
  8
dimensioni
 62
     0
440
 16777216
100
AcDbTrace
 10
9.129999999999999
 20
13.18684083448615
 30
0.0
 11
9.129999999999999
 21
13.12684083448615
 31
0.0
 12
8.949999999999999
 22
13.15684083448615
 32
0.0
 13
8.949999999999999
 23
13.15684083448615
 33
0.0
  0
SOLID
  5
585
330
57F
100
AcDbEntity
  8
dimensioni
 62
     0
440
 16777216
100
AcDbTrace
 10
13.82
 20
13.12684083448615
 30
0.0
 11
13.82
 21
13.18684083448615
 31
0.0
 12
14.0
 22
13.15684083448615
 32
0.0
 13
14.0
 23
13.15684083448615
 33
0.0
  0
MTEXT
  5
586
330
57F
100
AcDbEntity
  8
dimensioni
 62
     0
440
 16777216
100
AcDbMText
 10
11.475
 20
13.15684083448615
 30
0.0
 40
0.18
 41
0.0
 46
0.0
 71
     5
 72
     1
  1
\A1;5.1
 73
     1
 44
1.0
  0
POINT
  5
587
330
57F
100
AcDbEntity
  8
Defpoints
 62
     0
440
 16777216
100
AcDbPoint
 10
8.949999999999999
 20
11.7
 30
0.0
  0
POINT
  5
588
330
57F
100
AcDbEntity
  8
Defpoints
 62
     0
440
 16777216
100
AcDbPoint
 10
14.0
 20
12.0
 30
0.0
  0
POINT
  5
589
330
57F
100
AcDbEntity
  8
Defpoints
 62
     0
440
 16777216
100
AcDbPoint
 10
14.0
 20
13.15684083448615
 30
0.0
  0
ENDBLK
  5
58B
330
57F
100
AcDbEntity
  8
0
100
AcDbBlockEnd
  0
BLOCK
  5
59A
330
58F
100
AcDbEntity
  8
0
100
AcDbBlockBegin
  2
*D11
 70
     1
 10
0.0
 20
0.0
 30
0.0
  3
*D11
  1

  0
LINE
  5
590
330
58F
100
AcDbEntity
  8
dimensioni
 62
     0
440
 16777216
370
    -2
100
AcDbLine
 10
14.0625
 20
12.0
 30
0.0
 11
15.11188809929144
 21
12.0
 31
0.0
  0
LINE
  5
591
330
58F
100
AcDbEntity
  8
dimensioni
 62
     0
440
 16777216
370
    -2
100
AcDbLine
 10
13.7625
 20
7.91
 30
0.0
 11
15.11188809929144
 21
7.91
 31
0.0
  0
LINE
  5
592
330
58F
100
AcDbEntity
  8
dimensioni
 62
     0
440
 16777216
370
    -2
100
AcDbLine
 10
14.93188809929144
 20
11.82
 30
0.0
 11
14.93188809929144
 21
10.135
 31
0.0
  0
LINE
  5
593
330
58F
100
AcDbEntity
  8
dimensioni
 62
     0
440
 16777216
370
    -2
100
AcDbLine
 10
14.93188809929144
 20
8.089999999999999
 30
0.0
 11
14.93188809929144
 21
9.775
 31
0.0
  0
SOLID
  5
594
330
58F
100
AcDbEntity
  8
dimensioni
 62
     0
440
 16777216
100
AcDbTrace
 10
14.96188809929144
 20
11.82
 30
0.0
 11
14.90188809929144
 21
11.82
 31
0.0
 12
14.93188809929144
 22
12.0
 32
0.0
 13
14.93188809929144
 23
12.0
 33
0.0
  0
SOLID
  5
595
330
58F
100
AcDbEntity
  8
dimensioni
 62
     0
440
 16777216
100
AcDbTrace
 10
14.90188809929144
 20
8.089999999999999
 30
0.0
 11
14.96188809929144
 21
8.089999999999999
 31
0.0
 12
14.93188809929144
 22
7.91
 32
0.0
 13
14.93188809929144
 23
7.91
 33
0.0
  0
MTEXT
  5
596
330
58F
100
AcDbEntity
  8
dimensioni
 62
     0
440
 16777216
100
AcDbMText
 10
14.93188809929144
 20
9.955
 30
0.0
 40
0.18
 41
0.0
 46
0.0
 71
     5
 72
     1
  1
\A1;4.1
 73
     1
 44
1.0
  0
POINT
  5
597
330
58F
100
AcDbEntity
  8
Defpoints
 62
     0
440
 16777216
100
AcDbPoint
 10
14.0
 20
12.0
 30
0.0
  0
POINT
  5
598
330
58F
100
AcDbEntity
  8
Defpoints
 62
     0
440
 16777216
100
AcDbPoint
 10
13.7
 20
7.91
 30
0.0
  0
POINT
  5
599
330
58F
100
AcDbEntity
  8
Defpoints
 62
     0
440
 16777216
100
AcDbPoint
 10
14.93188809929144
 20
7.91
 30
0.0
  0
ENDBLK
  5
59B
330
58F
100
AcDbEntity
  8
0
100
AcDbBlockEnd
  0
BLOCK
  5
5AA
330
59F
100
AcDbEntity
  8
0
100
AcDbBlockBegin
  2
*D12
 70
     1
 10
0.0
 20
0.0
 30
0.0
  3
*D12
  1

  0
LINE
  5
5A0
330
59F
100
AcDbEntity
  8
dimensioni
 62
     0
440
 16777216
370
    -2
100
AcDbLine
 10
13.7625
 20
7.91
 30
0.0
 11
15.12688809929144
 21
7.91
 31
0.0
  0
LINE
  5
5A1
330
59F
100
AcDbEntity
  8
dimensioni
 62
     0
440
 16777216
370
    -2
100
AcDbLine
 10
14.0625
 20
0.0
 30
0.0
 11
15.12688809929144
 21
-0.0000000000000001
 31
0.0
  0
LINE
  5
5A2
330
59F
100
AcDbEntity
  8
dimensioni
 62
     0
440
 16777216
370
    -2
100
AcDbLine
 10
14.94688809929144
 20
7.73
 30
0.0
 11
14.94688809929144
 21
4.134999999999999
 31
0.0
  0
LINE
  5
5A3
330
59F
100
AcDbEntity
  8
dimensioni
 62
     0
440
 16777216
370
    -2
100
AcDbLine
 10
14.94688809929144
 20
0.1799999999999999
 30
0.0
 11
14.94688809929144
 21
3.775
 31
0.0
  0
SOLID
  5
5A4
330
59F
100
AcDbEntity
  8
dimensioni
 62
     0
440
 16777216
100
AcDbTrace
 10
14.97688809929144
 20
7.73
 30
0.0
 11
14.91688809929144
 21
7.73
 31
0.0
 12
14.94688809929144
 22
7.91
 32
0.0
 13
14.94688809929144
 23
7.91
 33
0.0
  0
SOLID
  5
5A5
330
59F
100
AcDbEntity
  8
dimensioni
 62
     0
440
 16777216
100
AcDbTrace
 10
14.91688809929144
 20
0.1799999999999999
 30
0.0
 11
14.97688809929144
 21
0.1799999999999999
 31
0.0
 12
14.94688809929144
 22
-0.0000000000000001
 32
0.0
 13
14.94688809929144
 23
-0.0000000000000001
 33
0.0
  0
MTEXT
  5
5A6
330
59F
100
AcDbEntity
  8
dimensioni
 62
     0
440
 16777216
100
AcDbMText
 10
14.94688809929144
 20
3.955
 30
0.0
 40
0.18
 41
0.0
 46
0.0
 71
     5
 72
     1
  1
\A1;7.9
 73
     1
 44
1.0
  0
POINT
  5
5A7
330
59F
100
AcDbEntity
  8
Defpoints
 62
     0
440
 16777216
100
AcDbPoint
 10
13.7
 20
7.91
 30
0.0
  0
POINT
  5
5A8
330
59F
100
AcDbEntity
  8
Defpoints
 62
     0
440
 16777216
100
AcDbPoint
 10
14.0
 20
0.0
 30
0.0
  0
POINT
  5
5A9
330
59F
100
AcDbEntity
  8
Defpoints
 62
     0
440
 16777216
100
AcDbPoint
 10
14.94688809929144
 20
-0.0000000000000001
 30
0.0
  0
ENDBLK
  5
5AB
330
59F
100
AcDbEntity
  8
0
100
AcDbBlockEnd
  0
BLOCK
  5
5BA
330
5AF
100
AcDbEntity
  8
0
100
AcDbBlockBegin
  2
*D13
 70
     1
 10
0.0
 20
0.0
 30
0.0
  3
*D13
  1

  0
LINE
  5
5B0
330
5AF
100
AcDbEntity
  8
dimensioni
 62
     0
440
 16777216
370
    -2
100
AcDbLine
 10
14.0
 20
-0.0625
 30
0.0
 11
14.0
 21
-1.259577382612395
 31
0.0
  0
LINE
  5
5B1
330
5AF
100
AcDbEntity
  8
dimensioni
 62
     0
440
 16777216
370
    -2
100
AcDbLine
 10
7.04
 20
0.2374999999999999
 30
0.0
 11
7.04
 21
-1.259577382612395
 31
0.0
  0
LINE
  5
5B2
330
5AF
100
AcDbEntity
  8
dimensioni
 62
     0
440
 16777216
370
    -2
100
AcDbLine
 10
13.82
 20
-1.079577382612395
 30
0.0
 11
10.77875
 21
-1.079577382612395
 31
0.0
  0
LINE
  5
5B3
330
5AF
100
AcDbEntity
  8
dimensioni
 62
     0
440
 16777216
370
    -2
100
AcDbLine
 10
7.219999999999999
 20
-1.079577382612395
 30
0.0
 11
10.26125
 21
-1.079577382612395
 31
0.0
  0
SOLID
  5
5B4
330
5AF
100
AcDbEntity
  8
dimensioni
 62
     0
440
 16777216
100
AcDbTrace
 10
13.82
 20
-1.109577382612395
 30
0.0
 11
13.82
 21
-1.049577382612395
 31
0.0
 12
14.0
 22
-1.079577382612395
 32
0.0
 13
14.0
 23
-1.079577382612395
 33
0.0
  0
SOLID
  5
5B5
330
5AF
100
AcDbEntity
  8
dimensioni
 62
     0
440
 16777216
100
AcDbTrace
 10
7.219999999999999
 20
-1.049577382612395
 30
0.0
 11
7.219999999999999
 21
-1.109577382612395
 31
0.0
 12
7.04
 22
-1.079577382612395
 32
0.0
 13
7.04
 23
-1.079577382612395
 33
0.0
  0
MTEXT
  5
5B6
330
5AF
100
AcDbEntity
  8
dimensioni
 62
     0
440
 16777216
100
AcDbMText
 10
10.52
 20
-1.079577382612395
 30
0.0
 40
0.18
 41
0.0
 46
0.0
 71
     5
 72
     1
  1
\A1;7.0
 73
     1
 44
1.0
  0
POINT
  5
5B7
330
5AF
100
AcDbEntity
  8
Defpoints
 62
     0
440
 16777216
100
AcDbPoint
 10
14.0
 20
0.0
 30
0.0
  0
POINT
  5
5B8
330
5AF
100
AcDbEntity
  8
Defpoints
 62
     0
440
 16777216
100
AcDbPoint
 10
7.04
 20
0.2999999999999999
 30
0.0
  0
POINT
  5
5B9
330
5AF
100
AcDbEntity
  8
Defpoints
 62
     0
440
 16777216
100
AcDbPoint
 10
7.04
 20
-1.079577382612395
 30
0.0
  0
ENDBLK
  5
5BB
330
5AF
100
AcDbEntity
  8
0
100
AcDbBlockEnd
  0
BLOCK
  5
5DA
330
5CF
100
AcDbEntity
  8
0
100
AcDbBlockBegin
  2
*D14
 70
     1
 10
0.0
 20
0.0
 30
0.0
  3
*D14
  1

  0
LINE
  5
5D0
330
5CF
100
AcDbEntity
  8
dimensioni
 62
     0
440
 16777216
370
    -2
100
AcDbLine
 10
7.04
 20
0.2374999999999999
 30
0.0
 11
7.04
 21
-1.259577382612395
 31
0.0
  0
LINE
  5
5D1
330
5CF
100
AcDbEntity
  8
dimensioni
 62
     0
440
 16777216
370
    -2
100
AcDbLine
 10
0.0
 20
-0.0625
 30
0.0
 11
0.0
 21
-1.259577382612395
 31
0.0
  0
LINE
  5
5D2
330
5CF
100
AcDbEntity
  8
dimensioni
 62
     0
440
 16777216
370
    -2
100
AcDbLine
 10
6.86
 20
-1.079577382612395
 30
0.0
 11
3.77875
 21
-1.079577382612395
 31
0.0
  0
LINE
  5
5D3
330
5CF
100
AcDbEntity
  8
dimensioni
 62
     0
440
 16777216
370
    -2
100
AcDbLine
 10
0.18
 20
-1.079577382612395
 30
0.0
 11
3.261249999999999
 21
-1.079577382612395
 31
0.0
  0
SOLID
  5
5D4
330
5CF
100
AcDbEntity
  8
dimensioni
 62
     0
440
 16777216
100
AcDbTrace
 10
6.86
 20
-1.109577382612395
 30
0.0
 11
6.86
 21
-1.049577382612395
 31
0.0
 12
7.04
 22
-1.079577382612395
 32
0.0
 13
7.04
 23
-1.079577382612395
 33
0.0
  0
SOLID
  5
5D5
330
5CF
100
AcDbEntity
  8
dimensioni
 62
     0
440
 16777216
100
AcDbTrace
 10
0.18
 20
-1.049577382612395
 30
0.0
 11
0.18
 21
-1.109577382612395
 31
0.0
 12
0.0
 22
-1.079577382612395
 32
0.0
 13
0.0
 23
-1.079577382612395
 33
0.0
  0
MTEXT
  5
5D6
330
5CF
100
AcDbEntity
  8
dimensioni
 62
     0
440
 16777216
100
AcDbMText
 10
3.52
 20
-1.079577382612395
 30
0.0
 40
0.18
 41
0.0
 46
0.0
 71
     5
 72
     1
  1
\A1;7.0
 73
     1
 44
1.0
  0
POINT
  5
5D7
330
5CF
100
AcDbEntity
  8
Defpoints
 62
     0
440
 16777216
100
AcDbPoint
 10
7.04
 20
0.2999999999999999
 30
0.0
  0
POINT
  5
5D8
330
5CF
100
AcDbEntity
  8
Defpoints
 62
     0
440
 16777216
100
AcDbPoint
 10
0.0
 20
0.0
 30
0.0
  0
POINT
  5
5D9
330
5CF
100
AcDbEntity
  8
Defpoints
 62
     0
440
 16777216
100
AcDbPoint
 10
0.0
 20
-1.079577382612395
 30
0.0
  0
ENDBLK
  5
5DB
330
5CF
100
AcDbEntity
  8
0
100
AcDbBlockEnd
  0
BLOCK
  5
5FD
330
5F2
100
AcDbEntity
  8
0
100
AcDbBlockBegin
  2
*D15
 70
     1
 10
0.0
 20
0.0
 30
0.0
  3
*D15
  1

  0
LINE
  5
5F3
330
5F2
100
AcDbEntity
  8
dimensioni
 62
     0
440
 16777216
370
    -2
100
AcDbLine
 10
0.0
 20
-0.125
 30
0.0
 11
0.0
 21
-0.7383712985123856
 31
0.0
  0
LINE
  5
5F4
330
5F2
100
AcDbEntity
  8
dimensioni
 62
     0
440
 16777216
370
    -2
100
AcDbLine
 10
5.099999999999999
 20
0.2375
 30
0.0
 11
5.099999999999999
 21
-0.7383712985123856
 31
0.0
  0
LINE
  5
5F5
330
5F2
100
AcDbEntity
  8
dimensioni
 62
     0
440
 16777216
370
    -2
100
AcDbLine
 10
0.18
 20
-0.5583712985123857
 30
0.0
 11
2.297142857142857
 21
-0.5583712985123857
 31
0.0
  0
LINE
  5
5F6
330
5F2
100
AcDbEntity
  8
dimensioni
 62
     0
440
 16777216
370
    -2
100
AcDbLine
 10
4.919999999999999
 20
-0.5583712985123857
 30
0.0
 11
2.802857142857142
 21
-0.5583712985123857
 31
0.0
  0
SOLID
  5
5F7
330
5F2
100
AcDbEntity
  8
dimensioni
 62
     0
440
 16777216
100
AcDbTrace
 10
0.18
 20
-0.5283712985123856
 30
0.0
 11
0.18
 21
-0.5883712985123858
 31
0.0
 12
0.0
 22
-0.5583712985123857
 32
0.0
 13
0.0
 23
-0.5583712985123857
 33
0.0
  0
SOLID
  5
5F8
330
5F2
100
AcDbEntity
  8
dimensioni
 62
     0
440
 16777216
100
AcDbTrace
 10
4.919999999999999
 20
-0.5883712985123858
 30
0.0
 11
4.919999999999999
 21
-0.5283712985123856
 31
0.0
 12
5.099999999999999
 22
-0.5583712985123857
 32
0.0
 13
5.099999999999999
 23
-0.5583712985123857
 33
0.0
  0
MTEXT
  5
5F9
330
5F2
100
AcDbEntity
  8
dimensioni
 62
     0
440
 16777216
100
AcDbMText
 10
2.549999999999999
 20
-0.5583712985123857
 30
0.0
 40
0.18
 41
0.0
 46
0.0
 71
     5
 72
     1
  1
\A1;5.1
 73
     1
 44
1.0
  0
POINT
  5
5FA
330
5F2
100
AcDbEntity
  8
Defpoints
 62
     0
440
 16777216
100
AcDbPoint
 10
0.0
 20
-0.0625
 30
0.0
  0
POINT
  5
5FB
330
5F2
100
AcDbEntity
  8
Defpoints
 62
     0
440
 16777216
100
AcDbPoint
 10
5.099999999999999
 20
0.3
 30
0.0
  0
POINT
  5
5FC
330
5F2
100
AcDbEntity
  8
Defpoints
 62
     0
440
 16777216
100
AcDbPoint
 10
5.099999999999999
 20
-0.5583712985123857
 30
0.0
  0
ENDBLK
  5
5FE
330
5F2
100
AcDbEntity
  8
0
100
AcDbBlockEnd
  0
BLOCK
  5
60B
330
600
100
AcDbEntity
  8
0
100
AcDbBlockBegin
  2
*D16
 70
     1
 10
0.0
 20
0.0
 30
0.0
  3
*D16
  1

  0
LINE
  5
601
330
600
100
AcDbEntity
  8
dimensioni
 62
     0
440
 16777216
370
    -2
100
AcDbLine
 10
5.099999999999999
 20
0.2375
 30
0.0
 11
5.099999999999999
 21
-0.7435795890364501
 31
0.0
  0
LINE
  5
602
330
600
100
AcDbEntity
  8
dimensioni
 62
     0
440
 16777216
370
    -2
100
AcDbLine
 10
7.04
 20
0.2375
 30
0.0
 11
7.04
 21
-0.7435795890364501
 31
0.0
  0
LINE
  5
603
330
600
100
AcDbEntity
  8
dimensioni
 62
     0
440
 16777216
370
    -2
100
AcDbLine
 10
5.279999999999999
 20
-0.5635795890364502
 30
0.0
 11
5.808571428571428
 21
-0.5635795890364502
 31
0.0
  0
LINE
  5
604
330
600
100
AcDbEntity
  8
dimensioni
 62
     0
440
 16777216
370
    -2
100
AcDbLine
 10
6.86
 20
-0.5635795890364502
 30
0.0
 11
6.331428571428571
 21
-0.5635795890364502
 31
0.0
  0
SOLID
  5
605
330
600
100
AcDbEntity
  8
dimensioni
 62
     0
440
 16777216
100
AcDbTrace
 10
5.279999999999999
 20
-0.5335795890364502
 30
0.0
 11
5.279999999999999
 21
-0.5935795890364501
 31
0.0
 12
5.099999999999999
 22
-0.5635795890364502
 32
0.0
 13
5.099999999999999
 23
-0.5635795890364502
 33
0.0
  0
SOLID
  5
606
330
600
100
AcDbEntity
  8
dimensioni
 62
     0
440
 16777216
100
AcDbTrace
 10
6.86
 20
-0.5935795890364501
 30
0.0
 11
6.86
 21
-0.5335795890364502
 31
0.0
 12
7.04
 22
-0.5635795890364502
 32
0.0
 13
7.04
 23
-0.5635795890364502
 33
0.0
  0
MTEXT
  5
607
330
600
100
AcDbEntity
  8
dimensioni
 62
     0
440
 16777216
100
AcDbMText
 10
6.07
 20
-0.5635795890364502
 30
0.0
 40
0.18
 41
0.0
 46
0.0
 71
     5
 72
     1
  1
\A1;1.9
 73
     1
 44
1.0
  0
POINT
  5
608
330
600
100
AcDbEntity
  8
Defpoints
 62
     0
440
 16777216
100
AcDbPoint
 10
5.099999999999999
 20
0.3
 30
0.0
  0
POINT
  5
609
330
600
100
AcDbEntity
  8
Defpoints
 62
     0
440
 16777216
100
AcDbPoint
 10
7.04
 20
0.3
 30
0.0
  0
POINT
  5
60A
330
600
100
AcDbEntity
  8
Defpoints
 62
     0
440
 16777216
100
AcDbPoint
 10
7.04
 20
-0.5635795890364502
 30
0.0
  0
ENDBLK
  5
60C
330
600
100
AcDbEntity
  8
0
100
AcDbBlockEnd
  0
BLOCK
  5
619
330
60E
100
AcDbEntity
  8
0
100
AcDbBlockBegin
  2
*D17
 70
     1
 10
0.0
 20
0.0
 30
0.0
  3
*D17
  1

  0
LINE
  5
60F
330
60E
100
AcDbEntity
  8
dimensioni
 62
     0
440
 16777216
370
    -2
100
AcDbLine
 10
7.017972323316396
 20
0.2375
 30
0.0
 11
7.017972323316396
 21
-0.7636669472868985
 31
0.0
  0
LINE
  5
610
330
60E
100
AcDbEntity
  8
dimensioni
 62
     0
440
 16777216
370
    -2
100
AcDbLine
 10
14.0
 20
-0.0625
 30
0.0
 11
14.0
 21
-0.7636669472868987
 31
0.0
  0
LINE
  5
611
330
60E
100
AcDbEntity
  8
dimensioni
 62
     0
440
 16777216
370
    -2
100
AcDbLine
 10
7.197972323316395
 20
-0.5836669472868986
 30
0.0
 11
10.23041473308677
 21
-0.5836669472868986
 31
0.0
  0
LINE
  5
612
330
60E
100
AcDbEntity
  8
dimensioni
 62
     0
440
 16777216
370
    -2
100
AcDbLine
 10
13.82
 20
-0.5836669472868987
 30
0.0
 11
10.78755759022962
 21
-0.5836669472868986
 31
0.0
  0
SOLID
  5
613
330
60E
100
AcDbEntity
  8
dimensioni
 62
     0
440
 16777216
100
AcDbTrace
 10
7.197972323316395
 20
-0.5536669472868985
 30
0.0
 11
7.197972323316395
 21
-0.6136669472868986
 31
0.0
 12
7.017972323316396
 22
-0.5836669472868986
 32
0.0
 13
7.017972323316396
 23
-0.5836669472868986
 33
0.0
  0
SOLID
  5
614
330
60E
100
AcDbEntity
  8
dimensioni
 62
     0
440
 16777216
100
AcDbTrace
 10
13.82
 20
-0.6136669472868987
 30
0.0
 11
13.82
 21
-0.5536669472868986
 31
0.0
 12
14.0
 22
-0.5836669472868987
 32
0.0
 13
14.0
 23
-0.5836669472868987
 33
0.0
  0
MTEXT
  5
615
330
60E
100
AcDbEntity
  8
dimensioni
 62
     0
440
 16777216
100
AcDbMText
 10
10.5089861616582
 20
-0.5836669472868986
 30
0.0
 40
0.18
 41
0.0
 46
0.0
 71
     5
 72
     1
  1
\A1;7.0
 73
     1
 44
1.0
  0
POINT
  5
616
330
60E
100
AcDbEntity
  8
Defpoints
 62
     0
440
 16777216
100
AcDbPoint
 10
7.017972323316396
 20
0.3
 30
0.0
  0
POINT
  5
617
330
60E
100
AcDbEntity
  8
Defpoints
 62
     0
440
 16777216
100
AcDbPoint
 10
14.0
 20
0.0
 30
0.0
  0
POINT
  5
618
330
60E
100
AcDbEntity
  8
Defpoints
 62
     0
440
 16777216
100
AcDbPoint
 10
14.0
 20
-0.5836669472868987
 30
0.0
  0
ENDBLK
  5
61A
330
60E
100
AcDbEntity
  8
0
100
AcDbBlockEnd
  0
BLOCK
  5
647
330
63C
100
AcDbEntity
  8
0
100
AcDbBlockBegin
  2
*D18
 70
     1
 10
0.0
 20
0.0
 30
0.0
  3
*D18
  1

  0
LINE
  5
63D
330
63C
100
AcDbEntity
  8
dimensioni
 62
     0
440
 16777216
370
    -2
100
AcDbLine
 10
-0.1250000000000013
 20
12.0
 30
0.0
 11
-0.6044944799735628
 21
12.0
 31
0.0
  0
LINE
  5
63E
330
63C
100
AcDbEntity
  8
dimensioni
 62
     0
440
 16777216
370
    -2
100
AcDbLine
 10
0.2375
 20
7.91
 30
0.0
 11
-0.6044944799735631
 21
7.91
 31
0.0
  0
LINE
  5
63F
330
63C
100
AcDbEntity
  8
dimensioni
 62
     0
440
 16777216
370
    -2
100
AcDbLine
 10
-0.4244944799735629
 20
11.82
 30
0.0
 11
-0.4244944799735629
 21
10.135
 31
0.0
  0
LINE
  5
640
330
63C
100
AcDbEntity
  8
dimensioni
 62
     0
440
 16777216
370
    -2
100
AcDbLine
 10
-0.4244944799735631
 20
8.089999999999999
 30
0.0
 11
-0.424494479973563
 21
9.775
 31
0.0
  0
SOLID
  5
641
330
63C
100
AcDbEntity
  8
dimensioni
 62
     0
440
 16777216
100
AcDbTrace
 10
-0.3944944799735628
 20
11.82
 30
0.0
 11
-0.4544944799735628
 21
11.82
 31
0.0
 12
-0.4244944799735629
 22
12.0
 32
0.0
 13
-0.4244944799735629
 23
12.0
 33
0.0
  0
SOLID
  5
642
330
63C
100
AcDbEntity
  8
dimensioni
 62
     0
440
 16777216
100
AcDbTrace
 10
-0.4544944799735631
 20
8.089999999999999
 30
0.0
 11
-0.3944944799735631
 21
8.089999999999999
 31
0.0
 12
-0.4244944799735631
 22
7.91
 32
0.0
 13
-0.4244944799735631
 23
7.91
 33
0.0
  0
MTEXT
  5
643
330
63C
100
AcDbEntity
  8
dimensioni
 62
     0
440
 16777216
100
AcDbMText
 10
-0.4244944799735629
 20
9.955
 30
0.0
 40
0.18
 41
0.0
 46
0.0
 71
     5
 72
     1
  1
\A1;4.1
 73
     1
 44
1.0
  0
POINT
  5
644
330
63C
100
AcDbEntity
  8
Defpoints
 62
     0
440
 16777216
100
AcDbPoint
 10
-0.0625000000000013
 20
12.0
 30
0.0
  0
POINT
  5
645
330
63C
100
AcDbEntity
  8
Defpoints
 62
     0
440
 16777216
100
AcDbPoint
 10
0.3
 20
7.91
 30
0.0
  0
POINT
  5
646
330
63C
100
AcDbEntity
  8
Defpoints
 62
     0
440
 16777216
100
AcDbPoint
 10
-0.4244944799735631
 20
7.91
 30
0.0
  0
ENDBLK
  5
648
330
63C
100
AcDbEntity
  8
0
100
AcDbBlockEnd
  0
BLOCK
  5
655
330
64A
100
AcDbEntity
  8
0
100
AcDbBlockBegin
  2
*D19
 70
     1
 10
0.0
 20
0.0
 30
0.0
  3
*D19
  1

  0
LINE
  5
64B
330
64A
100
AcDbEntity
  8
dimensioni
 62
     0
440
 16777216
370
    -2
100
AcDbLine
 10
0.2375
 20
7.91
 30
0.0
 11
-0.6412745679165793
 21
7.91
 31
0.0
  0
LINE
  5
64C
330
64A
100
AcDbEntity
  8
dimensioni
 62
     0
440
 16777216
370
    -2
100
AcDbLine
 10
0.2374999999999993
 20
4.227736677224414
 30
0.0
 11
-0.6412745679165795
 21
4.227736677224414
 31
0.0
  0
LINE
  5
64D
330
64A
100
AcDbEntity
  8
dimensioni
 62
     0
440
 16777216
370
    -2
100
AcDbLine
 10
-0.4612745679165793
 20
7.73
 30
0.0
 11
-0.4612745679165794
 21
6.248868338612206
 31
0.0
  0
LINE
  5
64E
330
64A
100
AcDbEntity
  8
dimensioni
 62
     0
440
 16777216
370
    -2
100
AcDbLine
 10
-0.4612745679165795
 20
4.407736677224414
 30
0.0
 11
-0.4612745679165794
 21
5.888868338612207
 31
0.0
  0
SOLID
  5
64F
330
64A
100
AcDbEntity
  8
dimensioni
 62
     0
440
 16777216
100
AcDbTrace
 10
-0.4312745679165793
 20
7.73
 30
0.0
 11
-0.4912745679165793
 21
7.73
 31
0.0
 12
-0.4612745679165793
 22
7.91
 32
0.0
 13
-0.4612745679165793
 23
7.91
 33
0.0
  0
SOLID
  5
650
330
64A
100
AcDbEntity
  8
dimensioni
 62
     0
440
 16777216
100
AcDbTrace
 10
-0.4912745679165794
 20
4.407736677224414
 30
0.0
 11
-0.4312745679165795
 21
4.407736677224414
 31
0.0
 12
-0.4612745679165795
 22
4.227736677224414
 32
0.0
 13
-0.4612745679165795
 23
4.227736677224414
 33
0.0
  0
MTEXT
  5
651
330
64A
100
AcDbEntity
  8
dimensioni
 62
     0
440
 16777216
100
AcDbMText
 10
-0.4612745679165794
 20
6.068868338612206
 30
0.0
 40
0.18
 41
0.0
 46
0.0
 71
     5
 72
     1
  1
\A1;3.7
 73
     1
 44
1.0
  0
POINT
  5
652
330
64A
100
AcDbEntity
  8
Defpoints
 62
     0
440
 16777216
100
AcDbPoint
 10
0.3
 20
7.91
 30
0.0
  0
POINT
  5
653
330
64A
100
AcDbEntity
  8
Defpoints
 62
     0
440
 16777216
100
AcDbPoint
 10
0.2999999999999993
 20
4.227736677224414
 30
0.0
  0
POINT
  5
654
330
64A
100
AcDbEntity
  8
Defpoints
 62
     0
440
 16777216
100
AcDbPoint
 10
-0.4612745679165795
 20
4.227736677224414
 30
0.0
  0
ENDBLK
  5
656
330
64A
100
AcDbEntity
  8
0
100
AcDbBlockEnd
  0
BLOCK
  5
873
330
872
100
AcDbEntity
  8
0
100
AcDbBlockBegin
  2
0.6x1.5
 70
     0
 10
0.0
 20
0.0
 30
0.0
  3
0.6x1.5
  1

  0
LINE
  5
875
330
872
100
AcDbEntity
  8
FINESTRE
100
AcDbLine
 10
0.0
 20
0.4399999999999995
 30
0.0
 11
0.0
 21
0.0
 31
0.0
  0
LINE
  5
876
330
872
100
AcDbEntity
  8
FINESTRE
100
AcDbLine
 10
0.0
 20
0.0
 30
0.0
 11
0.5999999999999997
 21
0.0
 31
0.0
  0
LINE
  5
877
330
872
100
AcDbEntity
  8
FINESTRE
100
AcDbLine
 10
0.5999999999999997
 20
0.4399999999999995
 30
0.0
 11
0.5999999999999997
 21
0.0
 31
0.0
  0
LINE
  5
878
330
872
100
AcDbEntity
  8
FINESTRE
100
AcDbLine
 10
0.0
 20
0.1500000000000003
 30
0.0
 11
0.5999999999999997
 21
0.1500000000000003
 31
0.0
  0
LINE
  5
879
330
872
100
AcDbEntity
  8
FINESTRE
100
AcDbLine
 10
0.0
 20
0.2000000000000011
 30
0.0
 11
0.5999999999999997
 21
0.2000000000000011
 31
0.0
  0
LINE
  5
87A
330
872
100
AcDbEntity
  8
FINESTRE
100
AcDbLine
 10
0.0
 20
0.4399999999999995
 30
0.0
 11
0.5999999999999997
 21
0.4399999999999995
 31
0.0
  0
ENDBLK
  5
874
330
872
100
AcDbEntity
  8
0
100
AcDbBlockEnd
  0
BLOCK
  5
B97
330
B96
100
AcDbEntity
  8
0
100
AcDbBlockBegin
  2
*D23
 70
     1
 10
0.0
 20
0.0
 30
0.0
  3
*D23
  1

  0
LINE
  5
BA3
330
B96
100
AcDbEntity
  8
DIMENSION
 62
     0
440
 16777216
370
    -2
100
AcDbLine
 10
26.21342777395123
 20
4.203298935739421
 30
0.0
 11
28.41395003773001
 21
4.203298935739421
 31
0.0
  0
LINE
  5
BA4
330
B96
100
AcDbEntity
  8
DIMENSION
 62
     0
440
 16777216
370
    -2
100
AcDbLine
 10
26.65342777395124
 20
3.330000000000001
 30
0.0
 11
28.41395003773001
 21
3.330000000000001
 31
0.0
  0
LINE
  5
BA5
330
B96
100
AcDbEntity
  8
DIMENSION
 62
     0
440
 16777216
370
    -2
100
AcDbLine
 10
28.23395003773001
 20
4.023298935739421
 30
0.0
 11
28.23395003773001
 21
3.510000000000002
 31
0.0
  0
MTEXT
  5
BA6
330
B96
100
AcDbEntity
  8
DIMENSION
 62
     0
440
 16777216
100
AcDbMText
 10
28.81895003773001
 20
3.766649467869702
 30
0.0
 40
0.18
 41
0.0
 46
0.0
 71
     5
 72
     1
  1
\A1;0.9
 73
     1
 44
1.0
  0
SOLID
  5
BA7
330
B96
100
AcDbEntity
  8
DIMENSION
 62
     0
440
 16777216
100
AcDbTrace
 10
28.20395003773001
 20
4.023298935739421
 30
0.0
 11
28.26395003773001
 21
4.023298935739421
 31
0.0
 12
28.23395003773001
 22
4.203298935739421
 32
0.0
 13
28.23395003773001
 23
4.203298935739421
 33
0.0
  0
SOLID
  5
BA8
330
B96
100
AcDbEntity
  8
DIMENSION
 62
     0
440
 16777216
100
AcDbTrace
 10
28.20395003773001
 20
3.510000000000002
 30
0.0
 11
28.26395003773001
 21
3.510000000000002
 31
0.0
 12
28.23395003773001
 22
3.330000000000001
 32
0.0
 13
28.23395003773001
 23
3.330000000000001
 33
0.0
  0
POINT
  5
BA9
330
B96
100
AcDbEntity
  8
Defpoints
 62
     0
440
 16777216
100
AcDbPoint
 10
26.15092777395123
 20
4.203298935739421
 30
0.0
  0
POINT
  5
BAA
330
B96
100
AcDbEntity
  8
Defpoints
 62
     0
440
 16777216
100
AcDbPoint
 10
26.59092777395124
 20
3.330000000000001
 30
0.0
  0
POINT
  5
BAB
330
B96
100
AcDbEntity
  8
Defpoints
 62
     0
440
 16777216
100
AcDbPoint
 10
28.23395003773001
 20
3.330000000000001
 30
0.0
  0
ENDBLK
  5
B98
330
B96
100
AcDbEntity
  8
0
100
AcDbBlockEnd
  0
BLOCK
  5
BAF
330
BAE
100
AcDbEntity
  8
0
100
AcDbBlockBegin
  2
*D24
 70
     1
 10
0.0
 20
0.0
 30
0.0
  3
*D24
  1

  0
LINE
  5
BBC
330
BAE
100
AcDbEntity
  8
DIMENSION
 62
     0
440
 16777216
370
    -2
100
AcDbLine
 10
25.15092777395122
 20
3.840784557922868
 30
0.0
 11
25.15092777395122
 21
3.15235815226854
 31
0.0
  0
LINE
  5
BBD
330
BAE
100
AcDbEntity
  8
DIMENSION
 62
     0
440
 16777216
370
    -2
100
AcDbLine
 10
26.15092777395122
 20
4.140798935739419
 30
0.0
 11
26.15092777395122
 21
3.15235815226854
 31
0.0
  0
LINE
  5
BBE
330
BAE
100
AcDbEntity
  8
DIMENSION
 62
     0
440
 16777216
370
    -2
100
AcDbLine
 10
25.33092777395122
 20
3.33235815226854
 30
0.0
 11
25.42592777395122
 21
3.33235815226854
 31
0.0
  0
LINE
  5
BBF
330
BAE
100
AcDbEntity
  8
DIMENSION
 62
     0
440
 16777216
370
    -2
100
AcDbLine
 10
25.97092777395122
 20
3.33235815226854
 30
0.0
 11
25.87592777395122
 21
3.33235815226854
 31
0.0
  0
SOLID
  5
BC0
330
BAE
100
AcDbEntity
  8
DIMENSION
 62
     0
440
 16777216
100
AcDbTrace
 10
25.33092777395122
 20
3.362358152268539
 30
0.0
 11
25.33092777395122
 21
3.30235815226854
 31
0.0
 12
25.15092777395122
 22
3.33235815226854
 32
0.0
 13
25.15092777395122
 23
3.33235815226854
 33
0.0
  0
SOLID
  5
BC1
330
BAE
100
AcDbEntity
  8
DIMENSION
 62
     0
440
 16777216
100
AcDbTrace
 10
25.97092777395122
 20
3.362358152268539
 30
0.0
 11
25.97092777395122
 21
3.30235815226854
 31
0.0
 12
26.15092777395122
 22
3.33235815226854
 32
0.0
 13
26.15092777395122
 23
3.33235815226854
 33
0.0
  0
MTEXT
  5
BC2
330
BAE
100
AcDbEntity
  8
DIMENSION
 62
     0
440
 16777216
100
AcDbMText
 10
25.65092777395122
 20
3.33235815226854
 30
0.0
 40
0.18
 41
0.0
 46
0.0
 71
     5
 72
     1
  1
\A1;1.0
 73
     1
 44
1.0
  0
POINT
  5
BC3
330
BAE
100
AcDbEntity
  8
Defpoints
 62
     0
440
 16777216
100
AcDbPoint
 10
25.15092777395122
 20
3.903284557922868
 30
0.0
  0
POINT
  5
BC4
330
BAE
100
AcDbEntity
  8
Defpoints
 62
     0
440
 16777216
100
AcDbPoint
 10
26.15092777395122
 20
4.203298935739419
 30
0.0
  0
POINT
  5
BC5
330
BAE
100
AcDbEntity
  8
Defpoints
 62
     0
440
 16777216
100
AcDbPoint
 10
26.15092777395122
 20
3.33235815226854
 30
0.0
  0
ENDBLK
  5
BB0
330
BAE
100
AcDbEntity
  8
0
100
AcDbBlockEnd
  0
BLOCK
  5
BC9
330
BC8
100
AcDbEntity
  8
0
100
AcDbBlockBegin
  2
*D25
 70
     1
 10
0.0
 20
0.0
 30
0.0
  3
*D25
  1

  0
LINE
  5
BD6
330
BC8
100
AcDbEntity
  8
DIMENSION
 62
     0
440
 16777216
370
    -2
100
AcDbLine
 10
26.54842777395124
 20
0.3200000000000001
 30
0.0
 11
23.93606877233484
 21
0.3199999999999997
 31
0.0
  0
LINE
  5
BD7
330
BC8
100
AcDbEntity
  8
DIMENSION
 62
     0
440
 16777216
370
    -2
100
AcDbLine
 10
25.08842777395123
 20
3.90328455792287
 30
0.0
 11
23.93606877233484
 21
3.90328455792287
 31
0.0
  0
LINE
  5
BD8
330
BC8
100
AcDbEntity
  8
DIMENSION
 62
     0
440
 16777216
370
    -2
100
AcDbLine
 10
24.11606877233484
 20
0.4999999999999999
 30
0.0
 11
24.11606877233484
 21
1.931642278961435
 31
0.0
  0
LINE
  5
BD9
330
BC8
100
AcDbEntity
  8
DIMENSION
 62
     0
440
 16777216
370
    -2
100
AcDbLine
 10
24.11606877233484
 20
3.72328455792287
 30
0.0
 11
24.11606877233484
 21
2.291642278961435
 31
0.0
  0
SOLID
  5
BDA
330
BC8
100
AcDbEntity
  8
DIMENSION
 62
     0
440
 16777216
100
AcDbTrace
 10
24.08606877233484
 20
0.4999999999999999
 30
0.0
 11
24.14606877233484
 21
0.4999999999999999
 31
0.0
 12
24.11606877233484
 22
0.3199999999999997
 32
0.0
 13
24.11606877233484
 23
0.3199999999999997
 33
0.0
  0
SOLID
  5
BDB
330
BC8
100
AcDbEntity
  8
DIMENSION
 62
     0
440
 16777216
100
AcDbTrace
 10
24.08606877233484
 20
3.72328455792287
 30
0.0
 11
24.14606877233484
 21
3.72328455792287
 31
0.0
 12
24.11606877233484
 22
3.90328455792287
 32
0.0
 13
24.11606877233484
 23
3.90328455792287
 33
0.0
  0
MTEXT
  5
BDC
330
BC8
100
AcDbEntity
  8
DIMENSION
 62
     0
440
 16777216
100
AcDbMText
 10
24.11606877233483
 20
2.111642278961427
 30
0.0
 40
0.18
 41
0.0
 46
0.0
 71
     5
 72
     1
  1
\A1;3.6
 73
     1
 44
1.0
  0
POINT
  5
BDD
330
BC8
100
AcDbEntity
  8
Defpoints
 62
     0
440
 16777216
100
AcDbPoint
 10
26.61092777395124
 20
0.3200000000000001
 30
0.0
  0
POINT
  5
BDE
330
BC8
100
AcDbEntity
  8
Defpoints
 62
     0
440
 16777216
100
AcDbPoint
 10
25.15092777395123
 20
3.90328455792287
 30
0.0
  0
POINT
  5
BDF
330
BC8
100
AcDbEntity
  8
Defpoints
 62
     0
440
 16777216
100
AcDbPoint
 10
24.11606877233484
 20
3.90328455792287
 30
0.0
  0
ENDBLK
  5
BCA
330
BC8
100
AcDbEntity
  8
0
100
AcDbBlockEnd
  0
ENDSEC
  0
SECTION
  2
ENTITIES
  0
LINE
  5
2E
330
7F
100
AcDbEntity
  8
0
100
AcDbLine
 10
6.990000000000001
 20
7.86
 30
0.0
 11
8.068936843621953
 21
7.86
 31
0.0
  0
LINE
  5
2F
330
7F
100
AcDbEntity
  8
0
100
AcDbLine
 10
6.99
 20
7.959999999999999
 30
0.0
 11
8.068936843621953
 21
7.959999999999999
 31
0.0
  0
LINE
  5
34
330
7F
100
AcDbEntity
  8
0
100
AcDbLine
 10
5.62
 20
7.86
 30
0.0
 11
5.62
 21
8.131351148260957
 31
0.0
  0
LINE
  5
38
330
7F
100
AcDbEntity
  8
0
100
AcDbLine
 10
5.519999999999999
 20
7.959999999999999
 30
0.0
 11
5.519999999999999
 21
8.131351148260957
 31
0.0
  0
LINE
  5
3A
330
7F
100
AcDbEntity
  8
0
100
AcDbLine
 10
7.089999999999999
 20
8.96
 30
0.0
 11
7.27375719094627
 21
8.96
 31
0.0
  0
LINE
  5
3B
330
7F
100
AcDbEntity
  8
0
100
AcDbLine
 10
6.99
 20
8.859999999999999
 30
0.0
 11
7.27375719094627
 21
8.859999999999999
 31
0.0
  0
LINE
  5
3C
330
7F
100
AcDbEntity
  8
0
100
AcDbLine
 10
6.99
 20
7.959999999999999
 30
0.0
 11
6.99
 21
7.86
 31
0.0
  0
LINE
  5
3D
330
7F
100
AcDbEntity
  8
0
100
AcDbLine
 10
5.0
 20
5.37
 30
0.0
 11
5.0
 21
7.86
 31
0.0
  0
LINE
  5
3E
330
7F
100
AcDbEntity
  8
0
100
AcDbLine
 10
5.099999999999999
 20
5.37
 30
0.0
 11
5.099999999999999
 21
7.86
 31
0.0
  0
LINE
  5
3F
330
7F
100
AcDbEntity
  8
0
100
AcDbLine
 10
3.9
 20
4.269999999999999
 30
0.0
 11
3.9
 21
4.373737495420968
 31
0.0
  0
LINE
  5
40
330
7F
100
AcDbEntity
  8
0
100
AcDbLine
 10
3.9
 20
5.37
 30
0.0
 11
5.62
 21
5.37
 31
0.0
  0
LINE
  5
41
330
7F
100
AcDbEntity
  8
0
100
AcDbLine
 10
4.0
 20
5.269999999999999
 30
0.0
 11
5.62
 21
5.269999999999999
 31
0.0
  0
LINE
  5
42
330
7F
100
AcDbEntity
  8
0
100
AcDbLine
 10
4.0
 20
4.269999999999999
 30
0.0
 11
4.0
 21
4.373737495420968
 31
0.0
  0
LINE
  5
43
330
7F
100
AcDbEntity
  8
0
100
AcDbLine
 10
9.0
 20
8.859999999999999
 30
0.0
 11
9.0
 21
7.959999999999999
 31
0.0
  0
LINE
  5
44
330
7F
100
AcDbEntity
  8
0
100
AcDbLine
 10
5.62
 20
7.86
 30
0.0
 11
5.62
 21
5.269999999999999
 31
0.0
  0
LINE
  5
45
330
7F
100
AcDbEntity
  8
0
100
AcDbLine
 10
5.099999999999999
 20
7.86
 30
0.0
 11
5.62
 21
5.37
 31
0.0
  0
LINE
  5
46
330
7F
100
AcDbEntity
  8
0
100
AcDbLine
 10
5.62
 20
7.86
 30
0.0
 11
5.099999999999999
 21
5.37
 31
0.0
  0
INSERT
  5
4F
330
7F
100
AcDbEntity
  8
FINESTRE
100
AcDbBlockReference
  2
120X250
 10
0.4400000000000001
 20
4.680643692202076
 30
0.0
 50
90.0
  0
INSERT
  5
50
330
7F
100
AcDbEntity
  8
FINESTRE
100
AcDbBlockReference
  2
120X250
 10
0.4400000000000001
 20
0.7224535780609999
 30
0.0
 50
90.0
  0
INSERT
  5
51
330
7F
100
AcDbEntity
  8
FINESTRE
100
AcDbBlockReference
  2
120X250
 10
14.0
 20
8.411163692404999
 30
0.0
 50
90.0
  0
INSERT
  5
52
330
7F
100
AcDbEntity
  8
FINESTRE
100
AcDbBlockReference
  2
120X250
 10
14.0
 20
6.242895698943
 30
0.0
 50
90.0
  0
INSERT
  5
132
330
7F
100
AcDbEntity
  8
dimensioni
100
AcDbBlockReference
  2
1x1.5
 10
5.474912082195984
 20
0.0
 30
0.0
  0
INSERT
  5
13D
330
7F
100
AcDbEntity
  8
dimensioni
100
AcDbBlockReference
  2
2.4x2.5
 10
7.526150738133075
 20
0.0
 30
0.0
  0
LINE
  5
3B6
330
7F
100
AcDbEntity
  8
0
100
AcDbLine
 10
4.124222096034742
 20
4.269999999999999
 30
0.0
 11
4.124222096034742
 21
4.169999999999999
 31
0.0
  0
LINE
  5
3B7
330
7F
100
AcDbEntity
  8
0
100
AcDbLine
 10
4.924222096034742
 20
4.269999999999999
 30
0.0
 11
4.924222096034742
 21
4.169999999999999
 31
0.0
  0
LINE
  5
3BD
330
7F
100
AcDbEntity
  8
0
100
AcDbLine
 10
5.278012180309263
 20
4.269999999999999
 30
0.0
 11
5.278012180309263
 21
4.169999999999999
 31
0.0
  0
LINE
  5
3BE
330
7F
100
AcDbEntity
  8
0
100
AcDbLine
 10
6.078012180309262
 20
4.269999999999999
 30
0.0
 11
6.078012180309262
 21
4.169999999999999
 31
0.0
  0
LINE
  5
3C4
330
7F
100
AcDbEntity
  8
0
100
AcDbLine
 10
8.068936843621953
 20
7.959999999999999
 30
0.0
 11
8.068936843621953
 21
7.86
 31
0.0
  0
LINE
  5
3C5
330
7F
100
AcDbEntity
  8
0
100
AcDbLine
 10
8.868936843621952
 20
7.959999999999999
 30
0.0
 11
8.868936843621952
 21
7.86
 31
0.0
  0
LINE
  5
3CB
330
7F
100
AcDbEntity
  8
0
100
AcDbLine
 10
7.27375719094627
 20
8.959999999999999
 30
0.0
 11
7.27375719094627
 21
8.859999999999999
 31
0.0
  0
LINE
  5
3CC
330
7F
100
AcDbEntity
  8
0
100
AcDbLine
 10
8.07375719094627
 20
8.959999999999999
 30
0.0
 11
8.07375719094627
 21
8.859999999999999
 31
0.0
  0
LINE
  5
3F3
330
7F
100
AcDbEntity
  8
0
100
AcDbLine
 10
3.9
 20
5.173737495420968
 30
0.0
 11
4.0
 21
5.173737495420968
 31
0.0
  0
LINE
  5
3F4
330
7F
100
AcDbEntity
  8
0
100
AcDbLine
 10
3.9
 20
4.373737495420968
 30
0.0
 11
4.0
 21
4.373737495420968
 31
0.0
  0
LINE
  5
3FA
330
7F
100
AcDbEntity
  8
0
100
AcDbLine
 10
5.519999999999999
 20
8.931351148260958
 30
0.0
 11
5.619999999999999
 21
8.931351148260958
 31
0.0
  0
LINE
  5
3FB
330
7F
100
AcDbEntity
  8
0
100
AcDbLine
 10
5.519999999999999
 20
8.131351148260957
 30
0.0
 11
5.619999999999999
 21
8.131351148260957
 31
0.0
  0
LINE
  5
3FE
330
7F
100
AcDbEntity
  8
0
100
AcDbLine
 10
8.07375719094627
 20
8.96
 30
0.0
 11
8.9
 21
8.96
 31
0.0
  0
LINE
  5
3FF
330
7F
100
AcDbEntity
  8
0
100
AcDbLine
 10
8.07375719094627
 20
8.859999999999999
 30
0.0
 11
9.0
 21
8.859999999999999
 31
0.0
  0
LINE
  5
402
330
7F
100
AcDbEntity
  8
0
100
AcDbLine
 10
6.078012180309262
 20
4.169999999999999
 30
0.0
 11
6.99
 21
4.169999999999999
 31
0.0
  0
LINE
  5
403
330
7F
100
AcDbEntity
  8
0
100
AcDbLine
 10
6.078012180309262
 20
4.269999999999999
 30
0.0
 11
6.99
 21
4.269999999999999
 31
0.0
  0
LINE
  5
404
330
7F
100
AcDbEntity
  8
0
100
AcDbLine
 10
4.924222096034742
 20
4.169999999999999
 30
0.0
 11
5.278012180309263
 21
4.169999999999999
 31
0.0
  0
LINE
  5
405
330
7F
100
AcDbEntity
  8
0
100
AcDbLine
 10
4.924222096034742
 20
4.269999999999999
 30
0.0
 11
5.278012180309263
 21
4.269999999999999
 31
0.0
  0
LINE
  5
406
330
7F
100
AcDbEntity
  8
0
100
AcDbLine
 10
4.0
 20
5.173737495420968
 30
0.0
 11
4.0
 21
5.269999999999999
 31
0.0
  0
LINE
  5
407
330
7F
100
AcDbEntity
  8
0
100
AcDbLine
 10
3.9
 20
5.173737495420968
 30
0.0
 11
3.9
 21
5.37
 31
0.0
  0
LINE
  5
408
330
7F
100
AcDbEntity
  8
0
100
AcDbLine
 10
6.99
 20
5.269999999999999
 30
0.0
 11
7.089999999999999
 21
5.269999999999999
 31
0.0
  0
LINE
  5
40A
330
7F
100
AcDbEntity
  8
0
100
AcDbLine
 10
7.089999999999999
 20
5.269999999999999
 30
0.0
 11
7.089999999999999
 21
7.86
 31
0.0
  0
LINE
  5
524
102
{ACAD_REACTORS
330
63B
102
}
330
7F
100
AcDbEntity
  8
dimensioni
100
AcDbLine
 10
0.3
 20
7.959999999999999
 30
0.0
 11
0.3
 21
7.86
 31
0.0
  0
LINE
  5
525
102
{ACAD_REACTORS
330
52E
330
53E
102
}
330
7F
100
AcDbEntity
  8
dimensioni
100
AcDbLine
 10
0.2717244253335904
 20
4.273390987207917
 30
0.0
 11
0.3
 21
4.169999999999999
 31
0.0
  0
LINE
  5
526
102
{ACAD_REACTORS
330
58E
330
59E
102
}
330
7F
100
AcDbEntity
  8
dimensioni
100
AcDbLine
 10
13.7
 20
7.959999999999999
 30
0.0
 11
13.7
 21
7.86
 31
0.0
  0
LINE
  5
527
102
{ACAD_REACTORS
330
5F1
102
}
330
7F
100
AcDbEntity
  8
dimensioni
100
AcDbLine
 10
5.0
 20
0.3
 30
0.0
 11
5.099999999999999
 21
0.3
 31
0.0
  0
LINE
  5
528
102
{ACAD_REACTORS
330
5AE
330
5CE
102
}
330
7F
100
AcDbEntity
  8
dimensioni
100
AcDbLine
 10
6.99
 20
0.2999999999999998
 30
0.0
 11
7.089999999999999
 21
0.3
 31
0.0
  0
DIMENSION
  5
52C
102
{ACAD_XDICTIONARY
360
52D
102
}
102
{ACAD_REACTORS
330
52E
102
}
330
7F
100
AcDbEntity
  8
dimensioni
100
AcDbDimension
280
     0
  2
*D5
 10
-0.9289594645806181
 20
4.221695493603958
 30
0.0
 11
-0.9289594645806182
 21
2.110847746801979
 31
0.0
 70
    32
 71
     5
 42
4.221695493603958
 73
     0
 74
     0
 75
     0
  3
Standard
100
AcDbAlignedDimension
 13
0.0
 23
0.0
 33
0.0
 14
0.2858622126667952
 24
4.221695493603958
 34
0.0
 50
90.0
100
AcDbRotatedDimension
1001
ACAD
1000
DSTYLE
1002
{
1070
   279
1070
     2
1002
}
  0
DIMENSION
  5
53C
102
{ACAD_XDICTIONARY
360
53D
102
}
102
{ACAD_REACTORS
330
53E
102
}
330
7F
100
AcDbEntity
  8
dimensioni
100
AcDbDimension
280
     0
  2
*D6
 10
-0.9289594645806177
 20
12.0
 30
0.0
 11
-0.9289594645806179
 21
8.110847746801979
 31
0.0
 70
    32
 71
     5
 42
7.778304506396041
 73
     0
 74
     0
 75
     0
  3
Standard
100
AcDbAlignedDimension
 13
0.2858622126667952
 23
4.221695493603958
 33
0.0
 14
0.0
 24
12.0
 34
0.0
 50
90.0
100
AcDbRotatedDimension
1001
ACAD
1000
DSTYLE
1002
{
1070
   279
1070
     2
1002
}
  0
DIMENSION
  5
54C
330
7F
100
AcDbEntity
  8
dimensioni
100
AcDbDimension
280
     0
  2
*D7
 10
5.57
 20
13.15684083448615
 30
0.0
 11
2.75375
 21
13.15684083448615
 31
0.0
 70
    32
 71
     5
 42
5.6325
 73
     0
 74
     0
 75
     0
  3
Standard
100
AcDbAlignedDimension
 13
-0.0625
 23
12.0
 33
0.0
 14
5.57
 24
11.7
 34
0.0
100
AcDbRotatedDimension
1001
ACAD
1000
DSTYLE
1002
{
1070
   279
1070
     2
1002
}
  0
DIMENSION
  5
55C
330
7F
100
AcDbEntity
  8
dimensioni
100
AcDbDimension
280
     0
  2
*D8
 10
7.04
 20
13.15684083448615
 30
0.0
 11
6.304999999999999
 21
13.15684083448615
 31
0.0
 70
    32
 71
     5
 42
1.469999999999999
 73
     0
 74
     0
 75
     0
  3
Standard
100
AcDbAlignedDimension
 13
5.57
 23
11.7
 33
0.0
 14
7.04
 24
11.7
 34
0.0
100
AcDbRotatedDimension
1001
ACAD
1000
DSTYLE
1002
{
1070
   279
1070
     2
1002
}
  0
DIMENSION
  5
56C
330
7F
100
AcDbEntity
  8
dimensioni
100
AcDbDimension
280
     0
  2
*D9
 10
8.949999999999999
 20
13.15684083448615
 30
0.0
 11
7.994999999999999
 21
13.15684083448615
 31
0.0
 70
    32
 71
     5
 42
1.909999999999999
 73
     0
 74
     0
 75
     0
  3
Standard
100
AcDbAlignedDimension
 13
7.04
 23
11.7
 33
0.0
 14
8.949999999999999
 24
11.7
 34
0.0
100
AcDbRotatedDimension
1001
ACAD
1000
DSTYLE
1002
{
1070
   279
1070
     2
1002
}
  0
DIMENSION
  5
57C
102
{ACAD_XDICTIONARY
360
57D
102
}
102
{ACAD_REACTORS
330
57E
102
}
330
7F
100
AcDbEntity
  8
dimensioni
100
AcDbDimension
280
     0
  2
*D10
 10
14.0
 20
13.15684083448615
 30
0.0
 11
11.475
 21
13.15684083448615
 31
0.0
 70
    32
 71
     5
 42
5.05
 73
     0
 74
     0
 75
     0
  3
Standard
100
AcDbAlignedDimension
 13
8.949999999999999
 23
11.7
 33
0.0
 14
14.0
 24
12.0
 34
0.0
100
AcDbRotatedDimension
1001
ACAD
1000
DSTYLE
1002
{
1070
   279
1070
     2
1002
}
  0
DIMENSION
  5
58C
102
{ACAD_XDICTIONARY
360
58D
102
}
102
{ACAD_REACTORS
330
58E
102
}
330
7F
100
AcDbEntity
  8
dimensioni
100
AcDbDimension
280
     0
  2
*D11
 10
14.93188809929144
 20
7.91
 30
0.0
 11
14.93188809929144
 21
9.955
 31
0.0
 70
    32
 71
     5
 42
4.089999999999999
 73
     0
 74
     0
 75
     0
  3
Standard
100
AcDbAlignedDimension
 13
14.0
 23
12.0
 33
0.0
 14
13.7
 24
7.91
 34
0.0
 50
90.0
100
AcDbRotatedDimension
1001
ACAD
1000
DSTYLE
1002
{
1070
   279
1070
     2
1002
}
  0
DIMENSION
  5
59C
102
{ACAD_XDICTIONARY
360
59D
102
}
102
{ACAD_REACTORS
330
59E
102
}
330
7F
100
AcDbEntity
  8
dimensioni
100
AcDbDimension
280
     0
  2
*D12
 10
14.94688809929144
 20
-0.0000000000000001
 30
0.0
 11
14.94688809929144
 21
3.955
 31
0.0
 70
    32
 71
     5
 42
7.91
 73
     0
 74
     0
 75
     0
  3
Standard
100
AcDbAlignedDimension
 13
13.7
 23
7.91
 33
0.0
 14
14.0
 24
0.0
 34
0.0
 50
90.0
100
AcDbRotatedDimension
1001
ACAD
1000
DSTYLE
1002
{
1070
   279
1070
     2
1002
}
  0
DIMENSION
  5
5AC
102
{ACAD_XDICTIONARY
360
5AD
102
}
102
{ACAD_REACTORS
330
5AE
102
}
330
7F
100
AcDbEntity
  8
dimensioni
100
AcDbDimension
280
     0
  2
*D13
 10
7.04
 20
-1.079577382612395
 30
0.0
 11
10.52
 21
-1.079577382612395
 31
0.0
 70
    32
 71
     5
 42
6.959999999999999
 73
     0
 74
     0
 75
     0
  3
Standard
100
AcDbAlignedDimension
 13
14.0
 23
0.0
 33
0.0
 14
7.04
 24
0.2999999999999999
 34
0.0
100
AcDbRotatedDimension
1001
ACAD
1000
DSTYLE
1002
{
1070
   279
1070
     2
1002
}
  0
DIMENSION
  5
5CC
102
{ACAD_XDICTIONARY
360
5CD
102
}
102
{ACAD_REACTORS
330
5CE
102
}
330
7F
100
AcDbEntity
  8
dimensioni
100
AcDbDimension
280
     0
  2
*D14
 10
0.0
 20
-1.079577382612395
 30
0.0
 11
3.52
 21
-1.079577382612395
 31
0.0
 70
    32
 71
     5
 42
7.04
 73
     0
 74
     0
 75
     0
  3
Standard
100
AcDbAlignedDimension
 13
7.04
 23
0.2999999999999999
 33
0.0
 14
0.0
 24
0.0
 34
0.0
100
AcDbRotatedDimension
1001
ACAD
1000
DSTYLE
1002
{
1070
   279
1070
     2
1002
}
  0
DIMENSION
  5
5EF
102
{ACAD_XDICTIONARY
360
5F0
102
}
102
{ACAD_REACTORS
330
5F1
102
}
330
7F
100
AcDbEntity
  8
dimensioni
100
AcDbDimension
280
     0
  2
*D15
 10
5.099999999999999
 20
-0.5583712985123857
 30
0.0
 11
2.549999999999999
 21
-0.5583712985123857
 31
0.0
 70
    32
 71
     5
 42
5.099999999999999
 73
     0
 74
     0
 75
     0
  3
Standard
100
AcDbAlignedDimension
 13
0.0
 23
-0.0625
 33
0.0
 14
5.099999999999999
 24
0.3
 34
0.0
100
AcDbRotatedDimension
1001
ACAD
1000
DSTYLE
1002
{
1070
   279
1070
     2
1002
}
  0
DIMENSION
  5
5FF
330
7F
100
AcDbEntity
  8
dimensioni
100
AcDbDimension
280
     0
  2
*D16
 10
7.04
 20
-0.5635795890364502
 30
0.0
 11
6.07
 21
-0.5635795890364502
 31
0.0
 70
    32
 71
     5
 42
1.94
 73
     0
 74
     0
 75
     0
  3
Standard
100
AcDbAlignedDimension
 13
5.099999999999999
 23
0.3
 33
0.0
 14
7.04
 24
0.3
 34
0.0
100
AcDbRotatedDimension
1001
ACAD
1000
DSTYLE
1002
{
1070
   279
1070
     2
1002
}
  0
DIMENSION
  5
60D
330
7F
100
AcDbEntity
  8
dimensioni
100
AcDbDimension
280
     0
  2
*D17
 10
14.0
 20
-0.5836669472868987
 30
0.0
 11
10.5089861616582
 21
-0.5836669472868986
 31
0.0
 70
    32
 71
     5
 42
6.982027676683603
 73
     0
 74
     0
 75
     0
  3
Standard
100
AcDbAlignedDimension
 13
7.017972323316396
 23
0.3
 33
0.0
 14
14.0
 24
0.0
 34
0.0
100
AcDbRotatedDimension
1001
ACAD
1000
DSTYLE
1002
{
1070
   279
1070
     2
1002
}
  0
DIMENSION
  5
639
102
{ACAD_XDICTIONARY
360
63A
102
}
102
{ACAD_REACTORS
330
63B
102
}
330
7F
100
AcDbEntity
  8
dimensioni
100
AcDbDimension
280
     0
  2
*D18
 10
-0.4244944799735631
 20
7.91
 30
0.0
 11
-0.4244944799735629
 21
9.955
 31
0.0
 70
    32
 71
     5
 42
4.089999999999999
 73
     0
 74
     0
 75
     0
  3
Standard
100
AcDbAlignedDimension
 13
-0.0625000000000013
 23
12.0
 33
0.0
 14
0.3
 24
7.91
 34
0.0
 50
90.0
100
AcDbRotatedDimension
1001
ACAD
1000
DSTYLE
1002
{
1070
   279
1070
     2
1002
}
  0
DIMENSION
  5
649
330
7F
100
AcDbEntity
  8
dimensioni
100
AcDbDimension
280
     0
  2
*D19
 10
-0.4612745679165795
 20
4.227736677224414
 30
0.0
 11
-0.4612745679165794
 21
6.068868338612206
 31
0.0
 70
    32
 71
     5
 42
3.682263322775585
 73
     0
 74
     0
 75
     0
  3
Standard
100
AcDbAlignedDimension
 13
0.3
 23
7.91
 33
0.0
 14
0.2999999999999993
 24
4.227736677224414
 34
0.0
 50
90.0
100
AcDbRotatedDimension
1001
ACAD
1000
DSTYLE
1002
{
1070
   279
1070
     2
1002
}
  0
LWPOLYLINE
  5
67C
330
7F
100
AcDbEntity
  8
superfici
100
AcDbPolyline
 90
        4
 70
     1
 43
0.0
 10
0.0
 20
0.0
 10
5.043488466132453
 20
0.0
 10
5.043488466132453
 20
4.269999999999999
 10
0.0
 20
4.221695493603959
  0
LWPOLYLINE
  5
689
330
7F
100
AcDbEntity
  8
superfici
100
AcDbPolyline
 90
        4
 70
     1
 43
0.0
 10
5.043488466132453
 20
0.0
 10
7.04
 20
0.0
 10
7.04
 20
4.269999999999999
 10
5.043488466132453
 20
4.269999999999999
  0
LWPOLYLINE
  5
69B
330
7F
100
AcDbEntity
  8
superfici
100
AcDbPolyline
 90
        4
 70
     1
 43
0.0
 10
7.04
 20
0.0
 10
14.0
 20
0.0
 10
14.0
 20
7.91
 10
7.089999999999999
 20
7.91
  0
LWPOLYLINE
  5
6B5
330
7F
100
AcDbEntity
  8
superfici
100
AcDbPolyline
 90
        4
 70
     1
 43
0.0
 10
14.0
 20
7.91
 10
14.0
 20
12.0
 10
8.949999999999999
 20
12.0
 10
8.949999999999999
 20
7.91
  0
LWPOLYLINE
  5
6D4
330
7F
100
AcDbEntity
  8
superfici
100
AcDbPolyline
 90
        4
 70
     1
 43
0.0
 10
6.99
 20
12.0
 10
6.99
 20
8.859999999999999
 10
8.949999999999999
 20
8.859999999999999
 10
8.949999999999999
 20
12.0
  0
LWPOLYLINE
  5
6EA
330
7F
100
AcDbEntity
  8
superfici
100
AcDbPolyline
 90
        4
 70
     1
 43
0.0
 10
0.0
 20
12.0
 10
0.0
 20
7.91
 10
5.62
 20
7.91
 10
5.62
 20
12.0
  0
LWPOLYLINE
  5
6FF
330
7F
100
AcDbEntity
  8
superfici
100
AcDbPolyline
 90
        6
 70
     1
 43
0.0
 10
0.0
 20
7.91
 10
-0.0000000000000007
 20
4.221695493603958
 10
3.953257161009001
 20
4.221695493603958
 10
3.953257161009001
 20
5.312311748341915
 10
5.62
 20
5.312311748341915
 10
5.62
 20
7.91
  0
HATCH
  5
74C
330
7F
100
AcDbEntity
  8
dimensioni
100
AcDbHatch
 10
0.0
 20
0.0
 30
0.0
210
0.0
220
0.0
230
1.0
  2
ANSI31
 70
     0
 71
     0
 91
        1
 92
        1
 93
        8
 72
     1
 10
0.3
 20
0.3000000000000007
 11
5.0
 21
0.3
 72
     1
 10
5.0
 20
0.3
 11
5.0
 21
4.169999999999999
 72
     1
 10
5.0
 20
4.169999999999999
 11
4.924222096034742
 21
4.169999999999999
 72
     1
 10
4.924222096034742
 20
4.169999999999999
 11
4.924222096034742
 21
4.269999999999999
 72
     1
 10
4.924222096034742
 20
4.269999999999999
 11
4.124222096034742
 21
4.269999999999999
 72
     1
 10
4.124222096034742
 20
4.269999999999999
 11
4.124222096034742
 21
4.169999999999999
 72
     1
 10
4.124222096034742
 20
4.169999999999999
 11
0.2999999999999998
 21
4.169999999999999
 72
     1
 10
0.3
 20
4.169999999999999
 11
0.3
 21
0.3000000000000007
 97
        0
 75
     0
 76
     1
 52
0.0
 41
1.0
 77
     0
 78
     1
 53
45.0
 43
0.0
 44
0.0
 45
-2.245064030267287
 46
2.245064030267288
 79
     0
 98
        1
 10
0.0
 20
0.0
1001
ACAD
1010
0.0
1020
0.0
1030
0.0
  0
LWPOLYLINE
  5
755
330
7F
100
AcDbEntity
  8
aree
100
AcDbPolyline
 90
        8
 70
     1
 43
0.0
 10
0.3
 20
0.3000000000000007
 10
5.0
 20
0.3
 10
5.0
 20
4.169999999999999
 10
4.924222096034742
 20
4.169999999999999
 10
4.924222096034742
 20
4.269999999999999
 10
4.124222096034742
 20
4.269999999999999
 10
4.124222096034742
 20
4.169999999999999
 10
0.3
 20
4.169999999999999
  0
MTEXT
  5
756
330
7F
100
AcDbEntity
  8
aree
100
AcDbMText
 10
1.503031849364681
 20
2.496048626951144
 30
0.0
 40
0.2
 41
1.066896822130596
 46
0.2333333333333333
 71
     1
 72
     5
  1
{18,3}
 73
     1
 44
1.0
1001
ACAD
1000
ACAD_MTEXT_DEFINED_HEIGHT_BEGIN
1070
    46
1040
0.2333333333333333
1000
ACAD_MTEXT_DEFINED_HEIGHT_END
  0
LWPOLYLINE
  5
757
330
7F
100
AcDbEntity
  8
aree
100
AcDbPolyline
 90
       10
 70
     1
 43
0.0
 10
0.3
 20
4.269999999999999
 10
3.9
 20
4.269999999999999
 10
3.9
 20
4.373737495420968
 10
4.0
 20
4.373737495420968
 10
4.0
 20
5.173737495420968
 10
3.9
 20
5.173737495420968
 10
3.9
 20
5.37
 10
5.0
 20
5.37
 10
5.0
 20
7.86
 10
0.3
 20
7.86
  0
MTEXT
  5
758
330
7F
100
AcDbEntity
  8
aree
100
AcDbMText
 10
1.386152703120037
 20
6.931078778524319
 30
0.0
 40
0.2
 41
1.908810278443811
 46
0.2333333333333333
 71
     1
 72
     5
  1
{16,8}
 73
     1
 44
1.0
1001
ACAD
1000
ACAD_MTEXT_DEFINED_HEIGHT_BEGIN
1070
    46
1040
0.2333333333333333
1000
ACAD_MTEXT_DEFINED_HEIGHT_END
  0
LWPOLYLINE
  5
759
330
7F
100
AcDbEntity
  8
aree
100
AcDbPolyline
 90
        9
 70
     1
 43
0.0
 10
0.3
 20
7.959999999999999
 10
5.519999999999999
 20
7.959999999999999
 10
5.519999999999999
 20
8.131351148260957
 10
5.62
 20
8.131351148260957
 10
5.62
 20
8.931351148260958
 10
5.519999999999999
 20
8.931351148260958
 10
5.519999999999999
 20
11.7
 10
0.3453768717245262
 20
11.7
 10
0.3
 20
11.7
  0
MTEXT
  5
75B
330
7F
100
AcDbEntity
  8
aree
100
AcDbMText
 10
1.450455974142702
 20
9.702745362246831
 30
0.0
 40
0.2
 41
2.633995182796963
 46
0.2333333333333333
 71
     1
 72
     5
  1
{18,1}
 73
     1
 44
1.0
1001
ACAD
1000
ACAD_MTEXT_DEFINED_HEIGHT_BEGIN
1070
    46
1040
0.2333333333333333
1000
ACAD_MTEXT_DEFINED_HEIGHT_END
  0
LWPOLYLINE
  5
75E
330
7F
100
AcDbEntity
  8
aree
100
AcDbPolyline
 90
       14
 70
     1
 43
0.0
 10
4.0
 20
4.269999999999999
 10
6.99
 20
4.269999999999999
 10
6.99
 20
7.959999999999999
 10
9.0
 20
7.959999999999999
 10
9.0
 20
8.859999999999999
 10
6.99
 20
8.859999999999999
 10
6.99
 20
11.7
 10
5.62
 20
11.7
 10
5.62
 20
7.86
 10
5.099999999999999
 20
7.86
 10
5.099999999999999
 20
5.37
 10
5.62
 20
5.37
 10
5.62
 20
5.269999999999999
 10
4.0
 20
5.269999999999999
  0
MTEXT
  5
75F
330
7F
100
AcDbEntity
  8
aree
100
AcDbMText
 10
4.702683471240586
 20
4.975103046886415
 30
0.0
 40
0.2
 41
1.067951731347984
 46
0.2333333333333333
 71
     1
 72
     5
  1
{14,9}
 73
     1
 44
1.0
1001
ACAD
1000
ACAD_MTEXT_DEFINED_HEIGHT_BEGIN
1070
    46
1040
0.2333333333333333
1000
ACAD_MTEXT_DEFINED_HEIGHT_END
  0
LWPOLYLINE
  5
760
330
7F
100
AcDbEntity
  8
aree
100
AcDbPolyline
 90
        8
 70
     1
 43
0.0
 10
7.089999999999999
 20
11.7
 10
7.089999999999999
 20
8.96
 10
7.27375719094627
 20
8.96
 10
7.27375719094627
 20
8.859999999999999
 10
8.07375719094627
 20
8.859999999999999
 10
8.07375719094627
 20
8.96
 10
8.9
 20
8.96
 10
8.9
 20
11.7
  0
MTEXT
  5
761
330
7F
100
AcDbEntity
  8
aree
100
AcDbMText
 10
7.432426650021401
 20
11.00071490220492
 30
0.0
 40
0.2
 41
0.9709959841862723
 46
0.2333333333333333
 71
     1
 72
     5
  1
{5,0}
 73
     1
 44
1.0
1001
ACAD
1000
ACAD_MTEXT_DEFINED_HEIGHT_BEGIN
1070
    46
1040
0.2333333333333333
1000
ACAD_MTEXT_DEFINED_HEIGHT_END
  0
LWPOLYLINE
  5
762
330
7F
100
AcDbEntity
  8
aree
100
AcDbPolyline
 90
        4
 70
     1
 43
0.0
 10
9.0
 20
7.959999999999999
 10
13.7
 20
7.959999999999999
 10
13.7
 20
11.7
 10
9.0
 20
11.7
  0
MTEXT
  5
763
330
7F
100
AcDbEntity
  8
aree
100
AcDbMText
 10
10.26150136937894
 20
10.68903717888587
 30
0.0
 40
0.2
 41
2.03789280631687
 46
0.2333333333333333
 71
     1
 72
     5
  1
{17,6}
 73
     1
 44
1.0
1001
ACAD
1000
ACAD_MTEXT_DEFINED_HEIGHT_BEGIN
1070
    46
1040
0.2333333333333333
1000
ACAD_MTEXT_DEFINED_HEIGHT_END
  0
LWPOLYLINE
  5
764
330
7F
100
AcDbEntity
  8
aree
100
AcDbPolyline
 90
        8
 70
     1
 43
0.0
 10
7.089999999999999
 20
0.3
 10
13.7
 20
0.3
 10
13.7
 20
7.86
 10
8.868936843621952
 20
7.86
 10
8.868936843621952
 20
7.959999999999999
 10
8.068936843621953
 20
7.959999999999999
 10
8.068936843621953
 20
7.86
 10
7.089999999999999
 20
7.86
  0
MTEXT
  5
765
330
7F
100
AcDbEntity
  8
aree
100
AcDbMText
 10
8.295908804168528
 20
4.896963718432148
 30
0.0
 40
0.2
 41
2.877025138329699
 46
0.2333333333333333
 71
     1
 72
     5
  1
{50,1}
 73
     1
 44
1.0
1001
ACAD
1000
ACAD_MTEXT_DEFINED_HEIGHT_BEGIN
1070
    46
1040
0.2333333333333333
1000
ACAD_MTEXT_DEFINED_HEIGHT_END
  0
LWPOLYLINE
  5
767
330
7F
100
AcDbEntity
  8
aree
100
AcDbPolyline
 90
        8
 70
     1
 43
0.0
 10
5.099999999999999
 20
0.3
 10
6.99
 20
0.2999999999999998
 10
6.99
 20
4.169999999999999
 10
6.078012180309262
 20
4.169999999999999
 10
6.078012180309262
 20
4.269999999999999
 10
5.278012180309263
 20
4.269999999999999
 10
5.278012180309263
 20
4.169999999999999
 10
5.099999999999999
 20
4.169999999999999
  0
MTEXT
  5
768
330
7F
100
AcDbEntity
  8
aree
100
AcDbMText
 10
5.453527843546217
 20
3.452577222943209
 30
0.0
 40
0.2
 41
0.7288463683768569
 46
0.2333333333333333
 71
     1
 72
     5
  1
{7,4}
 73
     1
 44
1.0
1001
ACAD
1000
ACAD_MTEXT_DEFINED_HEIGHT_BEGIN
1070
    46
1040
0.2333333333333333
1000
ACAD_MTEXT_DEFINED_HEIGHT_END
  0
LINE
  5
7BF
330
7F
100
AcDbEntity
  8
0
100
AcDbLine
 10
5.519999999999999
 20
7.959999999999999
 30
0.0
 11
0.4400000000000004
 21
7.959999999999999
 31
0.0
  0
LINE
  5
7C0
330
7F
100
AcDbEntity
  8
0
100
AcDbLine
 10
5.62
 20
7.86
 30
0.0
 11
0.4400000000000004
 21
7.86
 31
0.0
  0
LINE
  5
7C1
330
7F
100
AcDbEntity
  8
0
100
AcDbLine
 10
0.4400000000000001
 20
4.269999999999999
 30
0.0
 11
4.124222096034742
 21
4.269999999999999
 31
0.0
  0
LINE
  5
7C2
330
7F
100
AcDbEntity
  8
0
100
AcDbLine
 10
0.4400000000000001
 20
4.169999999999999
 30
0.0
 11
4.124222096034742
 21
4.169999999999999
 31
0.0
  0
LINE
  5
7C3
330
7F
100
AcDbEntity
  8
0
100
AcDbLine
 10
5.519999999999999
 20
8.931351148260958
 30
0.0
 11
5.519999999999999
 21
11.56
 31
0.0
  0
LINE
  5
7C4
330
7F
100
AcDbEntity
  8
0
100
AcDbLine
 10
8.868936843621952
 20
7.959999999999999
 30
0.0
 11
13.56
 21
7.959999999999999
 31
0.0
  0
LINE
  5
7C5
330
7F
100
AcDbEntity
  8
0
100
AcDbLine
 10
8.868936843621952
 20
7.86
 30
0.0
 11
13.56
 21
7.86
 31
0.0
  0
LINE
  5
7C6
330
7F
100
AcDbEntity
  8
0
100
AcDbLine
 10
7.089999999999999
 20
0.4400000000000001
 30
0.0
 11
7.089999999999999
 21
5.269999999999999
 31
0.0
  0
LINE
  5
7C7
330
7F
100
AcDbEntity
  8
0
100
AcDbLine
 10
6.99
 20
5.269999999999999
 30
0.0
 11
6.99
 21
0.4400000000000004
 31
0.0
  0
LINE
  5
7C8
330
7F
100
AcDbEntity
  8
0
100
AcDbLine
 10
5.099999999999999
 20
0.44
 30
0.0
 11
5.099999999999999
 21
4.169999999999999
 31
0.0
  0
LINE
  5
7C9
330
7F
100
AcDbEntity
  8
0
100
AcDbLine
 10
5.0
 20
0.44
 30
0.0
 11
5.0
 21
4.169999999999999
 31
0.0
  0
LINE
  5
7CA
330
7F
100
AcDbEntity
  8
0
100
AcDbLine
 10
5.62
 20
8.931351148260958
 30
0.0
 11
5.62
 21
11.56
 31
0.0
  0
LINE
  5
7CB
330
7F
100
AcDbEntity
  8
0
100
AcDbLine
 10
6.99
 20
8.859999999999999
 30
0.0
 11
6.99
 21
11.56
 31
0.0
  0
LINE
  5
7CC
330
7F
100
AcDbEntity
  8
0
100
AcDbLine
 10
7.089999999999999
 20
8.96
 30
0.0
 11
7.089999999999999
 21
11.56
 31
0.0
  0
LINE
  5
7CD
330
7F
100
AcDbEntity
  8
0
100
AcDbLine
 10
8.9
 20
11.56
 30
0.0
 11
8.9
 21
8.96
 31
0.0
  0
LINE
  5
7CE
330
7F
100
AcDbEntity
  8
0
100
AcDbLine
 10
9.0
 20
11.56
 30
0.0
 11
9.0
 21
8.859999999999999
 31
0.0
  0
LWPOLYLINE
  5
7D6
330
7F
100
AcDbEntity
  8
0
100
AcDbPolyline
 90
        6
 70
     0
 43
0.0
 10
6.918246109491
 20
12.0
 10
0.0
 20
12.0
 10
0.0
 20
0.0
 10
14.0
 20
0.0
 10
14.0
 20
12.0
 10
6.918246109491
 20
12.0
  0
INSERT
  5
7EA
330
7F
100
AcDbEntity
  8
FINESTRE
100
AcDbBlockReference
  2
120X250
 10
0.9443139917778108
 20
11.54891617600488
 30
0.0
  0
INSERT
  5
7EB
330
7F
100
AcDbEntity
  8
FINESTRE
100
AcDbBlockReference
  2
120X250
 10
5.684450383971604
 20
11.55787902133426
 30
0.0
  0
LWPOLYLINE
  5
81F
330
7F
100
AcDbEntity
  8
0
100
AcDbPolyline
 90
        5
 70
     1
 43
0.0
 10
6.918246109491
 20
11.56
 10
0.4400000000000001
 20
11.56
 10
0.4400000000000001
 20
0.4400000000000001
 10
13.56
 20
0.4400000000000001
 10
13.56
 20
11.56
  0
INSERT
  5
87B
330
7F
100
AcDbEntity
  8
FINESTRE
100
AcDbBlockReference
  2
0.6x1.5
 10
7.734032219656418
 20
11.56
 30
0.0
  0
MTEXT
  5
92C
330
7F
100
AcDbEntity
  8
0
100
AcDbMText
 10
7.622145059767044
 20
10.42827191656668
 30
0.0
 40
0.2
 41
0.7953794906308254
 46
0.8711299183099523
 71
     1
 72
     1
  1
B
 73
     1
 44
1.0
1001
ACAD
1000
ACAD_MTEXT_DEFINED_HEIGHT_BEGIN
1070
    46
1040
0.8711299183099523
1000
ACAD_MTEXT_DEFINED_HEIGHT_END
  0
MTEXT
  5
92E
330
7F
100
AcDbEntity
  8
0
100
AcDbMText
 10
2.0292879169099
 20
10.4425576308524
 30
0.0
 40
0.2
 41
0.9000000000000003
 46
0.7285714285714296
 71
     1
 72
     1
  1
L1
 73
     1
 44
1.0
1001
ACAD
1000
ACAD_MTEXT_DEFINED_HEIGHT_BEGIN
1070
    46
1040
0.7285714285714296
1000
ACAD_MTEXT_DEFINED_HEIGHT_END
  0
MTEXT
  5
92F
330
7F
100
AcDbEntity
  8
0
100
AcDbMText
 10
1.927502202624182
 20
6.660414773709539
 30
0.0
 40
0.2
 41
1.092857142857141
 46
1.221428571428571
 71
     1
 72
     1
  1
L2
 73
     1
 44
1.0
1001
ACAD
1000
ACAD_MTEXT_DEFINED_HEIGHT_BEGIN
1070
    46
1040
1.221428571428571
1000
ACAD_MTEXT_DEFINED_HEIGHT_END
  0
MTEXT
  5
930
330
7F
100
AcDbEntity
  8
0
100
AcDbMText
 10
1.832859345481322
 20
3.22589096418573
 30
0.0
 40
0.2
 41
1.8
 46
1.607142857142857
 71
     1
 72
     1
  1
L3
 73
     1
 44
1.0
1001
ACAD
1000
ACAD_MTEXT_DEFINED_HEIGHT_BEGIN
1070
    46
1040
1.607142857142857
1000
ACAD_MTEXT_DEFINED_HEIGHT_END
  0
MTEXT
  5
931
330
7F
100
AcDbEntity
  8
0
100
AcDbMText
 10
5.482859345481323
 20
3.283033821328587
 30
0.0
 40
0.2
 41
0.9571428571428572
 46
0.9142857142857142
 71
     1
 72
     1
  1
B1
 73
     1
 44
1.0
1001
ACAD
1000
ACAD_MTEXT_DEFINED_HEIGHT_BEGIN
1070
    46
1040
0.9142857142857142
1000
ACAD_MTEXT_DEFINED_HEIGHT_END
  0
MTEXT
  5
932
330
7F
100
AcDbEntity
  8
0
100
AcDbMText
 10
9.347145059767036
 20
4.811605249900015
 30
0.0
 40
0.2
 41
1.542857142857142
 46
2.085714285714285
 71
     1
 72
     1
  1
S
 73
     1
 44
1.0
1001
ACAD
1000
ACAD_MTEXT_DEFINED_HEIGHT_BEGIN
1070
    46
1040
2.085714285714285
1000
ACAD_MTEXT_DEFINED_HEIGHT_END
  0
MTEXT
  5
933
330
7F
100
AcDbEntity
  8
0
100
AcDbMText
 10
6.090002202624178
 20
6.854462392757158
 30
0.0
 40
0.2
 41
0.7285714285714296
 46
0.7142857142857136
 71
     1
 72
     1
  1
C
 73
     1
 44
1.0
1001
ACAD
1000
ACAD_MTEXT_DEFINED_HEIGHT_BEGIN
1070
    46
1040
0.7142857142857136
1000
ACAD_MTEXT_DEFINED_HEIGHT_END
  0
MTEXT
  5
934
330
7F
100
AcDbEntity
  8
0
100
AcDbMText
 10
10.10534645115483
 20
10.62558509876651
 30
0.0
 40
0.2
 41
1.143936667866139
 46
1.074607172843951
 71
     1
 72
     1
  1
K
 73
     1
 44
1.0
1001
ACAD
1000
ACAD_MTEXT_DEFINED_HEIGHT_BEGIN
1070
    46
1040
1.074607172843951
1000
ACAD_MTEXT_DEFINED_HEIGHT_END
  0
LINE
  5
A2A
330
7F
100
AcDbEntity
  8
tetto
100
AcDbLine
 10
0.0
 20
0.0
 30
0.0
 11
14.0
 21
0.0
 31
0.0
  0
LINE
  5
A2F
330
7F
100
AcDbEntity
  8
tetto
100
AcDbLine
 10
0.0
 20
12.0
 30
0.0
 11
5.993690641162936
 21
6.0
 31
0.0
  0
LINE
  5
A30
330
7F
100
AcDbEntity
  8
tetto
100
AcDbLine
 10
14.0
 20
12.0
 30
0.0
 11
7.904225676300145
 21
6.0
 31
0.0
  0
LINE
  5
A31
330
7F
100
AcDbEntity
  8
tetto
100
AcDbLine
 10
0.0
 20
0.0
 30
0.0
 11
5.993690641162936
 21
6.0
 31
0.0
  0
LINE
  5
A32
330
7F
100
AcDbEntity
  8
tetto
100
AcDbLine
 10
14.0
 20
0.000000000000001
 30
0.0
 11
7.904225676300145
 21
6.0
 31
0.0
  0
LINE
  5
A33
330
7F
100
AcDbEntity
  8
tetto
100
AcDbLine
 10
5.993690641162936
 20
6.0
 30
0.0
 11
7.904225676300145
 21
6.0
 31
0.0
  0
LINE
  5
B24
330
7F
100
AcDbEntity
  8
DIMENSION
100
AcDbLine
 10
26.15092777395123
 20
0.0
 30
0.0
 11
40.15092777395122
 21
0.0
 31
0.0
  0
LINE
  5
B26
330
7F
100
AcDbEntity
  8
DIMENSION
100
AcDbLine
 10
26.61092777395122
 20
0.32
 30
0.0
 11
39.69092777395122
 21
0.3200000000000001
 31
0.0
  0
LINE
  5
B27
330
7F
100
AcDbEntity
  8
DIMENSION
100
AcDbLine
 10
26.61092777395122
 20
3.02
 30
0.0
 11
39.69092777395122
 21
3.02
 31
0.0
  0
LINE
  5
B28
330
7F
100
AcDbEntity
  8
DIMENSION
100
AcDbLine
 10
26.59092777395122
 20
3.329999999999999
 30
0.0
 11
39.71092777395123
 21
3.329999999999999
 31
0.0
  0
LINE
  5
B2A
330
7F
100
AcDbEntity
  8
DIMENSION
100
AcDbLine
 10
26.59092777395122
 20
3.329999999999999
 30
0.0
 11
39.71092777395123
 21
3.329999999999999
 31
0.0
  0
LINE
  5
B2B
102
{ACAD_REACTORS
330
BAC
330
BC6
102
}
330
7F
100
AcDbEntity
  8
DIMENSION
100
AcDbLine
 10
26.15092777395123
 20
0.0
 30
0.0
 11
26.15092777395122
 21
4.203298935739419
 31
0.0
  0
LINE
  5
B2C
330
7F
100
AcDbEntity
  8
DIMENSION
100
AcDbLine
 10
40.15092777395122
 20
0.0
 30
0.0
 11
40.1509277739512
 21
4.203298935739423
 31
0.0
  0
LINE
  5
B2D
102
{ACAD_REACTORS
330
BE0
102
}
330
7F
100
AcDbEntity
  8
DIMENSION
100
AcDbLine
 10
26.61092777395122
 20
0.32
 30
0.0
 11
26.61092777395122
 21
3.02
 31
0.0
  0
LINE
  5
B2E
330
7F
100
AcDbEntity
  8
DIMENSION
100
AcDbLine
 10
39.69092777395122
 20
0.3200000000000001
 30
0.0
 11
39.69092777395122
 21
3.02
 31
0.0
  0
LINE
  5
B3A
330
7F
100
AcDbEntity
  8
DIMENSION
100
AcDbLine
 10
32.23963951355175
 20
6.426733217318483
 30
0.0
 11
33.15092777395122
 21
6.426733217318483
 31
0.0
  0
LINE
  5
B4A
330
7F
100
AcDbEntity
  8
DIMENSION
100
AcDbLine
 10
32.23963951355175
 20
6.029999999999999
 30
0.0
 11
33.15092777395122
 21
6.029999999999999
 31
0.0
  0
LINE
  5
B56
102
{ACAD_REACTORS
330
BAC
102
}
330
7F
100
AcDbEntity
  8
DIMENSION
100
AcDbLine
 10
26.59092777395122
 20
3.329999999999999
 30
0.0
 11
26.59092777395123
 21
4.335305261978702
 31
0.0
  0
LINE
  5
B57
330
7F
100
AcDbEntity
  8
DIMENSION
100
AcDbLine
 10
39.71092777395123
 20
3.329999999999999
 30
0.0
 11
39.71092777395123
 21
4.335305261978701
 31
0.0
  0
LINE
  5
B5C
102
{ACAD_REACTORS
330
BC6
330
BE0
102
}
330
7F
100
AcDbEntity
  8
DIMENSION
100
AcDbLine
 10
25.15092777395122
 20
3.903284557922868
 30
0.0
 11
32.23963951355175
 21
6.029999999999999
 31
0.0
  0
LINE
  5
B61
330
7F
100
AcDbEntity
  8
DIMENSION
100
AcDbLine
 10
25.15092777395122
 20
3.903284557922868
 30
0.0
 11
25.15092777395122
 21
4.300017775241354
 31
0.0
  0
LINE
  5
B62
330
7F
100
AcDbEntity
  8
DIMENSION
100
AcDbLine
 10
25.15092777395122
 20
4.300017775241354
 30
0.0
 11
32.23963951355175
 21
6.426733217318483
 31
0.0
  0
LINE
  5
B65
330
7F
100
AcDbEntity
  8
DIMENSION
100
AcDbLine
 10
41.15092777395123
 20
3.903284557922868
 30
0.0
 11
41.15092777395123
 21
4.300017775241354
 31
0.0
  0
LINE
  5
B66
330
7F
100
AcDbEntity
  8
DIMENSION
100
AcDbLine
 10
34.0622160343507
 20
6.426733217318483
 30
0.0
 11
33.15092777395122
 21
6.426733217318483
 31
0.0
  0
LINE
  5
B67
330
7F
100
AcDbEntity
  8
DIMENSION
100
AcDbLine
 10
34.0622160343507
 20
6.029999999999999
 30
0.0
 11
33.15092777395122
 21
6.029999999999999
 31
0.0
  0
LINE
  5
B68
330
7F
100
AcDbEntity
  8
DIMENSION
100
AcDbLine
 10
41.15092777395123
 20
3.903284557922868
 30
0.0
 11
34.0622160343507
 21
6.029999999999999
 31
0.0
  0
LINE
  5
B69
330
7F
100
AcDbEntity
  8
DIMENSION
100
AcDbLine
 10
41.15092777395123
 20
4.300017775241354
 30
0.0
 11
34.0622160343507
 21
6.426733217318483
 31
0.0
  0
LINE
  5
B6B
330
7F
100
AcDbEntity
  8
DIMENSION
100
AcDbLine
 10
31.65092777395122
 20
1.319999999999998
 30
0.0
 11
31.65092777395122
 21
2.819999999999998
 31
0.0
  0
LINE
  5
B6C
330
7F
100
AcDbEntity
  8
DIMENSION
100
AcDbLine
 10
32.65092777395122
 20
1.319999999999998
 30
0.0
 11
32.65092777395122
 21
2.819999999999999
 31
0.0
  0
LINE
  5
B6D
330
7F
100
AcDbEntity
  8
DIMENSION
100
AcDbLine
 10
31.65092777395122
 20
1.319999999999998
 30
0.0
 11
32.65092777395122
 21
1.319999999999998
 31
0.0
  0
LINE
  5
B6E
330
7F
100
AcDbEntity
  8
DIMENSION
100
AcDbLine
 10
31.65092777395122
 20
2.819999999999998
 30
0.0
 11
32.65092777395122
 21
2.819999999999999
 31
0.0
  0
LINE
  5
B6F
330
7F
100
AcDbEntity
  8
DIMENSION
100
AcDbLine
 10
33.65092777395122
 20
0.3200000000000001
 30
0.0
 11
33.65092777395121
 21
2.819999999999999
 31
0.0
  0
LINE
  5
B75
330
7F
100
AcDbEntity
  8
DIMENSION
100
AcDbLine
 10
36.05092777395122
 20
0.3200000000000069
 30
0.0
 11
36.05092777395121
 21
2.820000000000006
 31
0.0
  0
LINE
  5
B76
330
7F
100
AcDbEntity
  8
DIMENSION
100
AcDbLine
 10
33.65092777395121
 20
2.819999999999999
 30
0.0
 11
36.05092777395121
 21
2.820000000000006
 31
0.0
  0
LINE
  5
B77
330
7F
100
AcDbEntity
  8
DIMENSION
100
AcDbLine
 10
33.65092777395122
 20
0.3200000000000001
 30
0.0
 11
36.05092777395122
 21
0.3200000000000069
 31
0.0
  0
LINE
  5
B79
330
7F
100
AcDbEntity
  8
DIMENSION
100
AcDbLine
 10
31.75092777395122
 20
1.419999999999999
 30
0.0
 11
31.75092777395122
 21
2.719999999999998
 31
0.0
  0
LINE
  5
B7A
330
7F
100
AcDbEntity
  8
DIMENSION
100
AcDbLine
 10
32.55092777395122
 20
1.419999999999999
 30
0.0
 11
32.55092777395122
 21
2.719999999999999
 31
0.0
  0
LINE
  5
B7B
330
7F
100
AcDbEntity
  8
DIMENSION
100
AcDbLine
 10
31.75092777395122
 20
2.719999999999998
 30
0.0
 11
32.55092777395122
 21
2.719999999999999
 31
0.0
  0
LINE
  5
B7C
330
7F
100
AcDbEntity
  8
DIMENSION
100
AcDbLine
 10
31.75092777395122
 20
1.419999999999999
 30
0.0
 11
32.55092777395122
 21
1.419999999999999
 31
0.0
  0
LINE
  5
B7D
330
7F
100
AcDbEntity
  8
DIMENSION
100
AcDbLine
 10
33.80092777395121
 20
0.4700000000000006
 30
0.0
 11
33.8009277739512
 21
2.669999999999999
 31
0.0
  0
LINE
  5
B7E
330
7F
100
AcDbEntity
  8
DIMENSION
100
AcDbLine
 10
35.90092777395122
 20
0.4700000000000064
 30
0.0
 11
35.90092777395121
 21
2.670000000000006
 31
0.0
  0
LINE
  5
B7F
330
7F
100
AcDbEntity
  8
DIMENSION
100
AcDbLine
 10
33.8009277739512
 20
2.67
 30
0.0
 11
34.9509277739512
 21
2.670000000000003
 31
0.0
  0
LINE
  5
B80
330
7F
100
AcDbEntity
  8
DIMENSION
100
AcDbLine
 10
33.80092777395121
 20
0.4700000000000006
 30
0.0
 11
34.95092777395121
 21
0.4700000000000039
 31
0.0
  0
LINE
  5
B83
330
7F
100
AcDbEntity
  8
DIMENSION
100
AcDbLine
 10
34.95092777395121
 20
0.4700000000000043
 30
0.0
 11
34.9509277739512
 21
2.670000000000003
 31
0.0
  0
LINE
  5
B84
330
7F
100
AcDbEntity
  8
DIMENSION
100
AcDbLine
 10
35.10092777395121
 20
0.4700000000000048
 30
0.0
 11
35.1009277739512
 21
2.670000000000003
 31
0.0
  0
LINE
  5
B85
330
7F
100
AcDbEntity
  8
DIMENSION
100
AcDbLine
 10
35.1009277739512
 20
0.4700000000000042
 30
0.0
 11
35.90092777395121
 21
0.4700000000000065
 31
0.0
  0
LINE
  5
B86
330
7F
100
AcDbEntity
  8
DIMENSION
100
AcDbLine
 10
35.1009277739512
 20
2.670000000000003
 30
0.0
 11
35.90092777395121
 21
2.670000000000006
 31
0.0
  0
LINE
  5
B89
330
7F
100
AcDbEntity
  8
DIMENSION
100
AcDbLine
 10
32.65092777395122
 20
2.52
 30
0.0
 11
32.65092777395122
 21
2.819999999999999
 31
0.0
  0
DIMENSION
  5
B95
102
{ACAD_XDICTIONARY
360
BA2
102
}
102
{ACAD_REACTORS
330
BAC
102
}
330
7F
100
AcDbEntity
  8
DIMENSION
100
AcDbDimension
280
     0
  2
*D23
 10
28.23395003773001
 20
3.330000000000001
 30
0.0
 11
28.81895003773001
 21
3.766649467869702
 31
0.0
 70
    32
 71
     5
 42
0.8732989357394194
 73
     0
 74
     0
 75
     0
  3
Standard
100
AcDbAlignedDimension
 13
26.15092777395122
 23
4.203298935739419
 33
0.0
 14
26.59092777395122
 24
3.329999999999999
 34
0.0
 50
90.0
100
AcDbRotatedDimension
1001
ACAD
1000
DSTYLE
1002
{
1070
   279
1070
     2
1002
}
  0
DIMENSION
  5
BAD
102
{ACAD_XDICTIONARY
360
BBB
102
}
102
{ACAD_REACTORS
330
BC6
102
}
330
7F
100
AcDbEntity
  8
DIMENSION
100
AcDbDimension
280
     0
  2
*D24
 10
26.15092777395122
 20
3.33235815226854
 30
0.0
 11
25.65092777395122
 21
3.33235815226854
 31
0.0
 70
    32
 71
     5
 73
     0
 74
     0
 75
     0
  3
Standard
100
AcDbAlignedDimension
 13
25.15092777395122
 23
3.903284557922868
 33
0.0
 14
26.15092777395122
 24
4.203298935739419
 34
0.0
100
AcDbRotatedDimension
1001
ACAD
1000
DSTYLE
1002
{
1070
   279
1070
     2
1002
}
  0
DIMENSION
  5
BC7
102
{ACAD_XDICTIONARY
360
BD5
102
}
102
{ACAD_REACTORS
330
BE0
102
}
330
7F
100
AcDbEntity
  8
DIMENSION
100
AcDbDimension
280
     0
  2
*D25
 10
24.11606877233484
 20
3.90328455792287
 30
0.0
 11
24.11606877233483
 21
2.111642278961427
 31
0.0
 70
    32
 71
     5
 42
3.58328455792287
 73
     0
 74
     0
 75
     0
  3
Standard
100
AcDbAlignedDimension
 13
26.61092777395122
 23
0.32
 33
0.0
 14
25.15092777395122
 24
3.903284557922868
 34
0.0
 50
90.0
100
AcDbRotatedDimension
1001
ACAD
1000
DSTYLE
1002
{
1070
   279
1070
     2
1002
}
  0
VIEWPORT
  5
7DB
330
7D
100
AcDbEntity
 67
     1
  8
0
100
AcDbViewport
 10
0.0
 20
0.0
 30
0.0
 40
444.0808793969849
 41
222.18
 68
     1
 69
     1
 12
128.5
 22
97.5
 13
0.0
 23
0.0
 14
10.0
 24
10.0
 15
10.0
 25
10.0
 16
0.0
 26
0.0
 36
1.0
 17
0.0
 27
0.0
 37
0.0
 42
50.0
 43
0.0
 44
0.0
 45
222.18
 50
0.0
 51
0.0
 72
   100
 90
   557168
  1

281
     0
 71
     1
 74
     0
110
0.0
120
0.0
130
0.0
111
1.0
121
0.0
131
0.0
112
0.0
122
1.0
132
0.0
 79
     0
146
0.0
170
     0
 61
     5
348
5E3
292
     1
282
     1
141
0.0
142
0.0
 63
   250
421
  3355443
361
7DC
  0
ENDSEC
  0
SECTION
  2
OBJECTS
  0
DICTIONARY
  5
6F
330
0
100
AcDbDictionary
281
     1
  3
ACAD_CIP_PREVIOUS_PRODUCT_INFO
350
9E4
  3
ACAD_COLOR
350
9DC
  3
ACAD_DETAILVIEWSTYLE
350
9DF
  3
ACAD_GROUP
350
70
  3
ACAD_IMAGE_DICT
350
83C
  3
ACAD_IMAGE_VARS
350
D8
  3
ACAD_LAST_SAVED_VERSION_INFO
350
B8B
  3
ACAD_LAYOUT
350
7C
  3
ACAD_MATERIAL
350
85
  3
ACAD_MLEADERSTYLE
350
40D
  3
ACAD_MLINESTYLE
350
79
  3
ACAD_PLOTSETTINGS
350
7B
  3
ACAD_PLOTSTYLENAME
350
71
  3
ACAD_SCALELIST
350
93
  3
ACAD_SECTIONVIEWSTYLE
350
9DD
  3
ACAD_TABLESTYLE
350
D6
  3
ACAD_VISUALSTYLE
350
5DE
  3
ACDB_RECOMPOSE_DATA
350
BEA
  3
AcDbVariableDictionary
350
40B
  3
AcDsDecomposeData
350
BF0
  3
APPDATA
350
724
  3
HOST_DOC_SETTINGS
350
777
  3
MCS_STREAM_DICT
350
774
  0
DICTIONARY
  5
999
330
6B
100
AcDbDictionary
280
     1
281
     1
  0
SUN
  5
725
330
82
100
AcDbSun
 90
        1
290
     0
 63
     7
 40
1.0
291
     1
 91
  2455826
 92
 54000000
292
     0
 70
     0
 71
   256
280
     1
1001
ACAD
1000
AcDbSavedByObjectVersion
1070
     0
1000
AcDbSavedByObjectVersion
1070
     0
  0
DICTIONARY
  5
72B
330
65
100
AcDbDictionary
280
     1
281
     1
  3
ACAD_LAYERSTATES
360
72C
  0
DICTIONARY
  5
A34
330
73
100
AcDbDictionary
280
     1
281
     1
  3
ADSK_XREC_LAYER_RECONCILED
360
A35
  0
DICTIONARY
  5
A36
330
89
100
AcDbDictionary
280
     1
281
     1
  3
ADSK_XREC_LAYER_RECONCILED
360
A37
  0
DICTIONARY
  5
A38
330
E9
100
AcDbDictionary
280
     1
281
     1
  3
ADSK_XREC_LAYER_RECONCILED
360
A39
  0
DICTIONARY
  5
A3A
330
5DC
100
AcDbDictionary
280
     1
281
     1
  3
ADSK_XREC_LAYER_RECONCILED
360
A3B
  0
DICTIONARY
  5
A3C
330
66F
100
AcDbDictionary
280
     1
281
     1
  3
ADSK_XREC_LAYER_RECONCILED
360
A3D
  0
DICTIONARY
  5
A3E
330
787
100
AcDbDictionary
280
     1
281
     1
  3
ADSK_XREC_LAYER_RECONCILED
360
A3F
  0
DICTIONARY
  5
A40
330
9F9
100
AcDbDictionary
280
     1
281
     1
  3
ADSK_XREC_LAYER_RECONCILED
360
A41
  0
DICTIONARY
  5
79B
330
7F
100
AcDbDictionary
280
     1
281
     1
  3
ACAD_SORTENTS
360
79C
  0
DICTIONARY
  5
52D
330
52C
100
AcDbDictionary
280
     1
281
     1
  3
ACAD_DIMASSOC
360
52E
  0
DICTIONARY
  5
53D
330
53C
100
AcDbDictionary
280
     1
281
     1
  3
ACAD_DIMASSOC
360
53E
  0
DICTIONARY
  5
57D
330
57C
100
AcDbDictionary
280
     1
281
     1
  3
ACAD_DIMASSOC
360
57E
  0
DICTIONARY
  5
58D
330
58C
100
AcDbDictionary
280
     1
281
     1
  3
ACAD_DIMASSOC
360
58E
  0
DICTIONARY
  5
59D
330
59C
100
AcDbDictionary
280
     1
281
     1
  3
ACAD_DIMASSOC
360
59E
  0
DICTIONARY
  5
5AD
330
5AC
100
AcDbDictionary
280
     1
281
     1
  3
ACAD_DIMASSOC
360
5AE
  0
DICTIONARY
  5
5CD
330
5CC
100
AcDbDictionary
280
     1
281
     1
  3
ACAD_DIMASSOC
360
5CE
  0
DICTIONARY
  5
5F0
330
5EF
100
AcDbDictionary
280
     1
281
     1
  3
ACAD_DIMASSOC
360
5F1
  0
DICTIONARY
  5
63A
330
639
100
AcDbDictionary
280
     1
281
     1
  3
ACAD_DIMASSOC
360
63B
  0
DICTIONARY
  5
BA2
330
B95
100
AcDbDictionary
280
     1
281
     1
  3
ACAD_DIMASSOC
360
BAC
  0
DICTIONARY
  5
BBB
330
BAD
100
AcDbDictionary
280
     1
281
     1
  3
ACAD_DIMASSOC
360
BC6
  0
DICTIONARY
  5
BD5
330
BC7
100
AcDbDictionary
280
     1
281
     1
  3
ACAD_DIMASSOC
360
BE0
  0
SUN
  5
7DC
330
7DB
100
AcDbSun
 90
        1
290
     0
 63
     7
 40
1.0
291
     1
 91
  2455826
 92
 54000000
292
     0
 70
     0
 71
   256
280
     1
1001
ACAD
1000
AcDbSavedByObjectVersion
1070
     0
1000
AcDbSavedByObjectVersion
1070
     0
  0
XRECORD
  5
9E4
102
{ACAD_REACTORS
330
6F
102
}
330
6F
100
AcDbXrecord
280
     1
300
ACDLT
300
2025
300

  0
DICTIONARY
  5
9DC
102
{ACAD_REACTORS
330
6F
102
}
330
6F
100
AcDbDictionary
281
     1
  0
DICTIONARY
  5
9DF
102
{ACAD_REACTORS
330
6F
102
}
330
6F
100
AcDbDictionary
281
     1
  3
Metric50
350
9E0
  0
DICTIONARY
  5
70
102
{ACAD_REACTORS
330
6F
102
}
330
6F
100
AcDbDictionary
281
     1
  0
DICTIONARY
  5
83C
102
{ACAD_REACTORS
330
6F
102
}
330
6F
100
AcDbDictionary
281
     1
  0
RASTERVARIABLES
  5
D8
102
{ACAD_REACTORS
330
6F
102
}
330
6F
100
AcDbRasterVariables
 90
        0
 70
     1
 71
     1
 72
     2
  0
XRECORD
  5
B8B
102
{ACAD_REACTORS
330
6F
102
}
330
6F
100
AcDbXrecord
280
     1
300
{88704C4D-A17F-6042-9ECB-DE7C056FE00C}
301
{F037FFD5-91A3-B946-9164-CE409BA19A8F}
302
{88704C4D-A17F-6042-9ECB-DE7C056FE00C}
303
C:\Users\marco\Documents\MEGAsync\Didattica\ET\24-25\Esercizi\EsercizioRRT\rrtDimensioniR2010-044-tetto.dxf
  0
DICTIONARY
  5
7C
102
{ACAD_REACTORS
330
6F
102
}
330
6F
100
AcDbDictionary
281
     1
  3
Layout1
350
7E
  3
Model
350
80
  0
DICTIONARY
  5
85
102
{ACAD_REACTORS
330
6F
102
}
330
6F
100
AcDbDictionary
281
     1
  3
ByBlock
350
87
  3
ByLayer
350
86
  3
Global
350
88
  0
DICTIONARY
  5
40D
102
{ACAD_REACTORS
330
6F
102
}
330
6F
100
AcDbDictionary
281
     1
  3
Standard
350
723
  0
DICTIONARY
  5
79
102
{ACAD_REACTORS
330
6F
102
}
330
6F
100
AcDbDictionary
281
     1
  3
Standard
350
7A
  0
DICTIONARY
  5
7B
102
{ACAD_REACTORS
330
6F
102
}
330
6F
100
AcDbDictionary
281
     1
  0
ACDBDICTIONARYWDFLT
  5
71
102
{ACAD_REACTORS
330
6F
102
}
330
6F
100
AcDbDictionary
281
     1
  3
Normal
350
72
100
AcDbDictionaryWithDefault
340
72
  0
DICTIONARY
  5
93
102
{ACAD_REACTORS
330
6F
102
}
330
6F
100
AcDbDictionary
281
     1
  3
A0
350
94
  3
A1
350
95
  3
A2
350
96
  3
A3
350
97
  3
A4
350
98
  3
A5
350
99
  3
A6
350
9A
  3
A7
350
9B
  3
A8
350
9C
  3
A9
350
9D
  3
B0
350
9E
  3
B1
350
9F
  3
B2
350
A0
  3
B3
350
A1
  3
B4
350
A2
  3
B5
350
A3
  3
B6
350
A4
  3
B7
350
A5
  3
B8
350
A6
  3
B9
350
A7
  3
C0
350
A8
  3
C1
350
A9
  3
C2
350
AA
  3
C3
350
AB
  3
C4
350
AC
  3
C5
350
AD
  3
C6
350
AE
  3
C7
350
AF
  3
C8
350
B0
  3
C9
350
B1
  3
D0
350
B2
  3
D1
350
B3
  3
D2
350
B4
  0
DICTIONARY
  5
9DD
102
{ACAD_REACTORS
330
6F
102
}
330
6F
100
AcDbDictionary
281
     1
  3
Metric50
350
9DE
  0
DICTIONARY
  5
D6
102
{ACAD_REACTORS
330
6F
102
}
330
6F
100
AcDbDictionary
281
     1
  3
Standard
350
D7
  0
DICTIONARY
  5
5DE
102
{ACAD_REACTORS
330
6F
102
}
330
6F
100
AcDbDictionary
281
     1
  3
2dWireframe
350
5E3
  3
3D Hidden
350
5E5
  3
3dWireframe
350
5E4
  3
Basic
350
5E6
  3
Brighten
350
5EA
  3
ColorChange
350
5EE
  3
Conceptual
350
5E8
  3
Dim
350
5E9
  3
EdgeColorOff
350
71D
  3
Facepattern
350
5ED
  3
Flat
350
5DF
  3
FlatWithEdges
350
5E0
  3
Gouraud
350
5E1
  3
GouraudWithEdges
350
5E2
  3
Hidden
350
71A
  3
JitterOff
350
71B
  3
Linepattern
350
5EC
  3
OverhangOff
350
71C
  3
Realistic
350
5E7
  3
Shaded
350
722
  3
Shaded with edges
350
721
  3
Shades of Gray
350
71E
  3
Sketchy
350
71F
  3
Thicken
350
5EB
  3
Wireframe
350
719
  3
X-Ray
350
720
  0
XRECORD
  5
BEA
102
{ACAD_REACTORS
330
6F
102
}
330
6F
100
AcDbXrecord
280
     1
 90
        1
330
D7
330
52C
330
53C
330
54C
330
55C
330
56C
330
57C
330
58C
330
59C
330
5AC
330
5CC
330
5EF
330
5FF
330
60D
330
639
330
649
  0
DICTIONARY
  5
40B
102
{ACAD_REACTORS
330
6F
102
}
330
6F
100
AcDbDictionary
281
     1
  3
CANNOSCALE
350
929
  3
CMLEADERSTYLE
350
727
  3
CTABLESTYLE
350
726
  3
CVIEWDETAILSTYLE
350
9EC
  3
CVIEWSECTIONSTYLE
350
9ED
  3
DIMASSOC
350
8B3
  3
HIDETEXT
350
8B4
  3
LAYEREVAL
350
9EF
  3
LAYERNOTIFY
350
9F0
  3
LIGHTINGUNITS
350
9EE
  3
MSLTSCALE
350
8C8
  0
DICTIONARY
  5
BF0
102
{ACAD_REACTORS
330
6F
102
}
330
6F
100
AcDbDictionary
281
     1
  3
AcDsRecords
350
BF2
  3
AcDsSchemas
350
BF1
1001
ACAD
1070
     2
  0
DICTIONARY
  5
724
102
{ACAD_REACTORS
330
6F
102
}
330
6F
100
AcDbDictionary
281
     1
  0
DICTIONARY
  5
777
102
{ACAD_REACTORS
330
6F
102
}
330
6F
100
AcDbDictionary
281
     1
  3
NCDocParameters
350
778
  0
DICTIONARY
  5
774
102
{ACAD_REACTORS
330
6F
102
}
330
6F
100
AcDbDictionary
281
     1
  3
MC_VERSION_DATA
350
7D1
  3
MCS_DOCUMENT_ID
350
775
  3
MCS_PARAMS_DATA
350
7CF
  0
DICTIONARY
  5
72C
102
{ACAD_REACTORS
330
72B
102
}
330
72B
100
AcDbDictionary
281
     1
  0
XRECORD
  5
A35
102
{ACAD_REACTORS
330
A34
102
}
330
A34
100
AcDbXrecord
280
     1
290
     1
  0
XRECORD
  5
A37
102
{ACAD_REACTORS
330
A36
102
}
330
A36
100
AcDbXrecord
280
     1
290
     1
  0
XRECORD
  5
A39
102
{ACAD_REACTORS
330
A38
102
}
330
A38
100
AcDbXrecord
280
     1
290
     1
  0
XRECORD
  5
A3B
102
{ACAD_REACTORS
330
A3A
102
}
330
A3A
100
AcDbXrecord
280
     1
290
     1
  0
XRECORD
  5
A3D
102
{ACAD_REACTORS
330
A3C
102
}
330
A3C
100
AcDbXrecord
280
     1
290
     1
  0
XRECORD
  5
A3F
102
{ACAD_REACTORS
330
A3E
102
}
330
A3E
100
AcDbXrecord
280
     1
290
     1
  0
XRECORD
  5
A41
102
{ACAD_REACTORS
330
A40
102
}
330
A40
100
AcDbXrecord
280
     1
290
     1
  0
SORTENTSTABLE
  5
79C
102
{ACAD_REACTORS
330
79B
102
}
330
79B
100
AcDbSortentsTable
330
7F
331
B27
  5
B4B
331
B28
  5
B51
331
B2A
  5
B61
331
B2B
  5
B62
331
B2C
  5
B72
331
B2D
  5
B70
331
B2E
  5
B73
331
B3A
  5
B75
331
B4A
  5
B76
331
B56
  5
B71
331
B57
  5
B74
331
B5C
  5
B77
331
B61
  5
B6F
331
B62
  5
B79
331
B65
  5
B7A
331
B66
  5
B7B
331
B67
  5
B7C
331
B68
  5
B7D
331
B69
  5
B7E
331
B6B
  5
B65
331
B6C
  5
B67
331
B6D
  5
B3A
331
B6E
  5
B41
331
B6F
  5
B69
331
B75
  5
B6D
331
B76
  5
B7F
331
B77
  5
B84
331
B79
  5
B66
331
B7A
  5
B68
331
B7B
  5
B46
331
B7C
  5
B3C
331
B7D
  5
B6A
331
B7E
  5
B6E
331
B7F
  5
B80
331
B80
  5
B85
331
B83
  5
B6B
331
B84
  5
B6C
331
B85
  5
B86
331
B86
  5
B83
  0
DIMASSOC
  5
52E
102
{ACAD_REACTORS
330
52D
102
}
330
52D
100
AcDbDimAssoc
330
52C
 90
        3
 70
     0
 71
     0
  1
AcDbOsnapPointRef
 72
    13
331
0
 73
     2
 91
        1
 40
0.0
 10
0.0
 20
0.0
 30
0.0
 75
     0
  1
AcDbOsnapPointRef
 72
     2
331
525
 73
     2
 91
        0
 40
0.0
 10
0.0
 20
0.0
 30
0.0
 75
     0
  0
DIMASSOC
  5
53E
102
{ACAD_REACTORS
330
53D
102
}
330
53D
100
AcDbDimAssoc
330
53C
 90
        3
 70
     0
 71
     0
  1
AcDbOsnapPointRef
 72
     2
331
525
 73
     2
 91
        0
 40
0.0
 10
0.0
 20
0.0
 30
0.0
 75
     0
  1
AcDbOsnapPointRef
 72
     1
331
0
 73
     2
 91
        3
 40
0.0
 10
0.0
 20
0.0
 30
0.0
 75
     0
  0
DIMASSOC
  5
57E
102
{ACAD_REACTORS
330
57D
102
}
330
57D
100
AcDbDimAssoc
330
57C
 90
        2
 70
     0
 71
     0
  1
AcDbOsnapPointRef
 72
     1
331
0
 73
     2
 91
        2
 40
0.0
 10
0.0
 20
0.0
 30
0.0
 75
     0
  0
DIMASSOC
  5
58E
102
{ACAD_REACTORS
330
58D
102
}
330
58D
100
AcDbDimAssoc
330
58C
 90
        3
 70
     0
 71
     0
  1
AcDbOsnapPointRef
 72
     1
331
0
 73
     2
 91
        2
 40
0.0
 10
0.0
 20
0.0
 30
0.0
 75
     0
  1
AcDbOsnapPointRef
 72
     2
331
526
 73
     2
 91
        0
 40
0.0
 10
0.0
 20
0.0
 30
0.0
 75
     0
  0
DIMASSOC
  5
59E
102
{ACAD_REACTORS
330
59D
102
}
330
59D
100
AcDbDimAssoc
330
59C
 90
        3
 70
     0
 71
     0
  1
AcDbOsnapPointRef
 72
     2
331
526
 73
     2
 91
        0
 40
0.0
 10
0.0
 20
0.0
 30
0.0
 75
     0
  1
AcDbOsnapPointRef
 72
     1
331
0
 73
     2
 91
        1
 40
0.0
 10
0.0
 20
0.0
 30
0.0
 75
     0
  0
DIMASSOC
  5
5AE
102
{ACAD_REACTORS
330
5AD
102
}
330
5AD
100
AcDbDimAssoc
330
5AC
 90
        3
 70
     0
 71
     0
  1
AcDbOsnapPointRef
 72
     1
331
0
 73
     2
 91
        1
 40
0.0
 10
0.0
 20
0.0
 30
0.0
 75
     0
  1
AcDbOsnapPointRef
 72
     2
331
528
 73
     2
 91
        0
 40
0.0
 10
0.0
 20
0.0
 30
0.0
 75
     0
  0
DIMASSOC
  5
5CE
102
{ACAD_REACTORS
330
5CD
102
}
330
5CD
100
AcDbDimAssoc
330
5CC
 90
        3
 70
     0
 71
     0
  1
AcDbOsnapPointRef
 72
     2
331
528
 73
     2
 91
        0
 40
0.0
 10
0.0
 20
0.0
 30
0.0
 75
     0
  1
AcDbOsnapPointRef
 72
    13
331
0
 73
     2
 91
        1
 40
0.0
 10
0.0
 20
0.0
 30
0.0
 75
     0
  0
DIMASSOC
  5
5F1
102
{ACAD_REACTORS
330
5F0
102
}
330
5F0
100
AcDbDimAssoc
330
5EF
 90
        2
 70
     0
 71
     0
  1
AcDbOsnapPointRef
 72
     1
331
527
 73
     2
 91
        0
 40
0.0
 10
0.0
 20
0.0
 30
0.0
 75
     0
  0
DIMASSOC
  5
63B
102
{ACAD_REACTORS
330
63A
102
}
330
63A
100
AcDbDimAssoc
330
639
 90
        2
 70
     0
 71
     0
  1
AcDbOsnapPointRef
 72
     2
331
524
 73
     2
 91
        0
 40
0.0
 10
0.0
 20
0.0
 30
0.0
 75
     0
  0
DIMASSOC
  5
BAC
102
{ACAD_REACTORS
330
BA2
102
}
330
BA2
100
AcDbDimAssoc
330
B95
 90
        3
 70
     0
 71
     0
  1
AcDbOsnapPointRef
 72
     1
331
B2B
 73
     2
 91
        0
 40
1.0
 10
26.15092777395122
 20
4.203298935739419
 30
0.0
 75
     0
  1
AcDbOsnapPointRef
 72
    13
331
B56
 73
     2
 91
        0
 40
0.0
 10
26.59092777395122
 20
3.329999999999999
 30
0.0
 75
     0
  0
DIMASSOC
  5
BC6
102
{ACAD_REACTORS
330
BBB
102
}
330
BBB
100
AcDbDimAssoc
330
BAD
 90
        3
 70
     0
 71
     0
  1
AcDbOsnapPointRef
 72
    13
331
B5C
 73
     2
 91
        0
 40
0.0
 10
25.15092777395122
 20
3.903284557922868
 30
0.0
 75
     0
  1
AcDbOsnapPointRef
 72
     1
331
B2B
 73
     2
 91
        0
 40
1.0
 10
26.15092777395122
 20
4.203298935739419
 30
0.0
 75
     0
  0
DIMASSOC
  5
BE0
102
{ACAD_REACTORS
330
BD5
102
}
330
BD5
100
AcDbDimAssoc
330
BC7
 90
        3
 70
     0
 71
     0
  1
AcDbOsnapPointRef
 72
    13
331
B2D
 73
     2
 91
        0
 40
0.0
 10
26.61092777395122
 20
0.32
 30
0.0
 75
     0
  1
AcDbOsnapPointRef
 72
    13
331
B5C
 73
     2
 91
        0
 40
0.0
 10
25.15092777395122
 20
3.903284557922868
 30
0.0
 75
     0
  0
ACDBDETAILVIEWSTYLE
  5
9E0
102
{ACAD_XDICTIONARY
360
C29
102
}
102
{ACAD_REACTORS
330
9DF
102
}
330
9DF
100
AcDbModelDocViewStyle
 70
     0
  3
Metric50
290
     0
100
AcDbDetailViewStyle
 70
     0
 71
     0
 90
        3
 71
     1
340
74
 62
   256
 40
5.0
340
0
 62
   256
 40
5.0
300

 40
0.0
280
     1
 71
     2
340
78
 90
       25
 62
   256
 71
     3
340
74
 62
   256
 40
5.0
 90
        0
 40
15.0
 90
        1
300
%<\AcVar ViewDetailId>% (%<\AcVar ViewScale \f "%sn">%)
 71
     4
340
78
 90
       25
 62
   256
340
78
 90
       25
 62
   256
280
     0
  0
LAYOUT
  5
7E
102
{ACAD_REACTORS
330
7C
102
}
330
7C
100
AcDbPlotSettings
  1

  2
none_device
  4
ISO_A4_(210.00_x_297.00_MM)
  6

 40
7.5
 41
20.0
 42
7.5
 43
20.0
 44
210.0
 45
297.0
 46
0.0
 47
0.0
 48
0.0
 49
0.0
140
0.0
141
0.0
142
1.0
143
1.0
 70
   688
 72
     1
 73
     1
 74
     5
  7

 75
    16
147
1.0
 76
     0
 77
     2
 78
   300
148
0.0
149
0.0
100
AcDbLayout
  1
Layout1
 70
     0
 71
     1
 10
-20.0
 20
-7.5
 11
277.0
 21
202.5
 12
0.0
 22
0.0
 32
0.0
 14
1.000000000000000E+20
 24
1.000000000000000E+20
 34
1.000000000000000E+20
 15
-1.000000000000000E+20
 25
-1.000000000000000E+20
 35
-1.000000000000000E+20
146
0.0
 13
0.0
 23
0.0
 33
0.0
 16
1.0
 26
0.0
 36
0.0
 17
0.0
 27
1.0
 37
0.0
 76
     0
330
7D
331
7DB
  0
LAYOUT
  5
80
102
{ACAD_XDICTIONARY
360
ADE
102
}
102
{ACAD_REACTORS
330
7C
102
}
330
7C
100
AcDbPlotSettings
  1

  2
none_device
  4

  6

 40
0.0
 41
0.0
 42
0.0
 43
0.0
 44
0.0
 45
0.0
 46
0.0
 47
0.0
 48
0.0
 49
0.0
140
0.0
141
0.0
142
1.0
143
1.0
 70
  1712
 72
     0
 73
     0
 74
     0
  7

 75
     0
147
1.0
 76
     0
 77
     2
 78
   300
148
0.0
149
0.0
100
AcDbLayout
  1
Model
 70
     1
 71
     0
 10
0.0
 20
0.0
 11
12.0
 21
9.0
 12
0.0
 22
0.0
 32
0.0
 14
-1.108959464580618
 24
-1.259577382612395
 34
0.0
 15
15.12688809929144
 25
13.33684083448615
 35
0.0
146
0.0
 13
0.0
 23
0.0
 33
0.0
 16
1.0
 26
0.0
 36
0.0
 17
0.0
 27
1.0
 37
0.0
 76
     0
330
7F
331
82
  0
MATERIAL
  5
87
102
{ACAD_REACTORS
330
85
102
}
330
85
100
AcDbMaterial
  1
ByBlock
 73
     1
 78
     1
172
     1
176
     1
270
     1
274
     1
 94
       63
  0
MATERIAL
  5
86
102
{ACAD_REACTORS
330
85
102
}
330
85
100
AcDbMaterial
  1
ByLayer
 73
     1
 78
     1
172
     1
176
     1
270
     1
274
     1
 94
       63
  0
MATERIAL
  5
88
102
{ACAD_REACTORS
330
85
102
}
330
85
100
AcDbMaterial
  1
Global
 73
     1
 78
     1
172
     1
176
     1
270
     1
274
     1
 94
       63
  0
MLEADERSTYLE
  5
723
102
{ACAD_REACTORS
330
40D
102
}
330
40D
100
AcDbMLeaderStyle
179
     2
170
     2
171
     1
172
     0
 90
        2
 40
0.0
 41
0.0
173
     1
 91
-1056964608
340
76
 92
       -2
290
     1
 42
2.0
291
     1
 43
8.0
  3
Standard
 44
4.0
300

342
74
174
     1
178
     6
175
     1
176
     0
 93
-1056964608
 45
4.0
292
     0
297
     0
 46
4.0
 94
-1056964608
 47
1.0
 49
1.0
140
1.0
293
     1
141
0.0
294
     1
177
     0
142
1.0
295
     0
296
     0
143
3.75
271
     0
272
     9
273
     9
  0
MLINESTYLE
  5
7A
102
{ACAD_REACTORS
330
79
102
}
330
79
100
AcDbMlineStyle
  2
STANDARD
 70
     0
  3

 62
   256
 51
90.0
 52
90.0
 71
     2
 49
0.5
 62
   256
  6
BYLAYER
 49
-0.5
 62
   256
  6
BYLAYER
  0
ACDBPLACEHOLDER
  5
72
102
{ACAD_REACTORS
330
71
102
}
330
71
  0
SCALE
  5
94
102
{ACAD_REACTORS
330
93
102
}
330
93
100
AcDbScale
 70
     0
300
1:1
140
1.0
141
1.0
290
     1
  0
SCALE
  5
95
102
{ACAD_REACTORS
330
93
102
}
330
93
100
AcDbScale
 70
     0
300
1:2
140
1.0
141
2.0
290
     0
  0
SCALE
  5
96
102
{ACAD_REACTORS
330
93
102
}
330
93
100
AcDbScale
 70
     0
300
1:4
140
1.0
141
4.0
290
     0
  0
SCALE
  5
97
102
{ACAD_REACTORS
330
93
102
}
330
93
100
AcDbScale
 70
     0
300
1:5
140
1.0
141
5.0
290
     0
  0
SCALE
  5
98
102
{ACAD_REACTORS
330
93
102
}
330
93
100
AcDbScale
 70
     0
300
1:8
140
1.0
141
8.0
290
     0
  0
SCALE
  5
99
102
{ACAD_REACTORS
330
93
102
}
330
93
100
AcDbScale
 70
     0
300
1:10
140
1.0
141
10.0
290
     0
  0
SCALE
  5
9A
102
{ACAD_REACTORS
330
93
102
}
330
93
100
AcDbScale
 70
     0
300
1:16
140
1.0
141
16.0
290
     0
  0
SCALE
  5
9B
102
{ACAD_REACTORS
330
93
102
}
330
93
100
AcDbScale
 70
     0
300
1:20
140
1.0
141
20.0
290
     0
  0
SCALE
  5
9C
102
{ACAD_REACTORS
330
93
102
}
330
93
100
AcDbScale
 70
     0
300
1:30
140
1.0
141
30.0
290
     0
  0
SCALE
  5
9D
102
{ACAD_REACTORS
330
93
102
}
330
93
100
AcDbScale
 70
     0
300
1:40
140
1.0
141
40.0
290
     0
  0
SCALE
  5
9E
102
{ACAD_REACTORS
330
93
102
}
330
93
100
AcDbScale
 70
     0
300
1:50
140
1.0
141
50.0
290
     0
  0
SCALE
  5
9F
102
{ACAD_REACTORS
330
93
102
}
330
93
100
AcDbScale
 70
     0
300
1:100
140
1.0
141
100.0
290
     0
  0
SCALE
  5
A0
102
{ACAD_REACTORS
330
93
102
}
330
93
100
AcDbScale
 70
     0
300
2:1
140
2.0
141
1.0
290
     0
  0
SCALE
  5
A1
102
{ACAD_REACTORS
330
93
102
}
330
93
100
AcDbScale
 70
     0
300
4:1
140
4.0
141
1.0
290
     0
  0
SCALE
  5
A2
102
{ACAD_REACTORS
330
93
102
}
330
93
100
AcDbScale
 70
     0
300
8:1
140
8.0
141
1.0
290
     0
  0
SCALE
  5
A3
102
{ACAD_REACTORS
330
93
102
}
330
93
100
AcDbScale
 70
     0
300
10:1
140
10.0
141
1.0
290
     0
  0
SCALE
  5
A4
102
{ACAD_REACTORS
330
93
102
}
330
93
100
AcDbScale
 70
     0
300
100:1
140
100.0
141
1.0
290
     0
  0
SCALE
  5
A5
102
{ACAD_REACTORS
330
93
102
}
330
93
100
AcDbScale
 70
     0
300
1/128" = 1'-0"
140
0.0078125
141
12.0
290
     0
  0
SCALE
  5
A6
102
{ACAD_REACTORS
330
93
102
}
330
93
100
AcDbScale
 70
     0
300
1/64" = 1'-0"
140
0.015625
141
12.0
290
     0
  0
SCALE
  5
A7
102
{ACAD_REACTORS
330
93
102
}
330
93
100
AcDbScale
 70
     0
300
1/32" = 1'-0"
140
0.03125
141
12.0
290
     0
  0
SCALE
  5
A8
102
{ACAD_REACTORS
330
93
102
}
330
93
100
AcDbScale
 70
     0
300
1/16" = 1'-0"
140
0.0625
141
12.0
290
     0
  0
SCALE
  5
A9
102
{ACAD_REACTORS
330
93
102
}
330
93
100
AcDbScale
 70
     0
300
3/32" = 1'-0"
140
0.09375
141
12.0
290
     0
  0
SCALE
  5
AA
102
{ACAD_REACTORS
330
93
102
}
330
93
100
AcDbScale
 70
     0
300
1/8" = 1'-0"
140
0.125
141
12.0
290
     0
  0
SCALE
  5
AB
102
{ACAD_REACTORS
330
93
102
}
330
93
100
AcDbScale
 70
     0
300
3/16" = 1'-0"
140
0.1875
141
12.0
290
     0
  0
SCALE
  5
AC
102
{ACAD_REACTORS
330
93
102
}
330
93
100
AcDbScale
 70
     0
300
1/4" = 1'-0"
140
0.25
141
12.0
290
     0
  0
SCALE
  5
AD
102
{ACAD_REACTORS
330
93
102
}
330
93
100
AcDbScale
 70
     0
300
3/8" = 1'-0"
140
0.375
141
12.0
290
     0
  0
SCALE
  5
AE
102
{ACAD_REACTORS
330
93
102
}
330
93
100
AcDbScale
 70
     0
300
1/2" = 1'-0"
140
0.5
141
12.0
290
     0
  0
SCALE
  5
AF
102
{ACAD_REACTORS
330
93
102
}
330
93
100
AcDbScale
 70
     0
300
3/4" = 1'-0"
140
0.75
141
12.0
290
     0
  0
SCALE
  5
B0
102
{ACAD_REACTORS
330
93
102
}
330
93
100
AcDbScale
 70
     0
300
1" = 1'-0"
140
1.0
141
12.0
290
     0
  0
SCALE
  5
B1
102
{ACAD_REACTORS
330
93
102
}
330
93
100
AcDbScale
 70
     0
300
1-1/2" = 1'-0"
140
1.5
141
12.0
290
     0
  0
SCALE
  5
B2
102
{ACAD_REACTORS
330
93
102
}
330
93
100
AcDbScale
 70
     0
300
3" = 1'-0"
140
3.0
141
12.0
290
     0
  0
SCALE
  5
B3
102
{ACAD_REACTORS
330
93
102
}
330
93
100
AcDbScale
 70
     0
300
6" = 1'-0"
140
6.0
141
12.0
290
     0
  0
SCALE
  5
B4
102
{ACAD_REACTORS
330
93
102
}
330
93
100
AcDbScale
 70
     0
300
1'-0" = 1'-0"
140
12.0
141
12.0
290
     0
  0
ACDBSECTIONVIEWSTYLE
  5
9DE
102
{ACAD_XDICTIONARY
360
C27
102
}
102
{ACAD_REACTORS
330
9DD
102
}
330
9DD
100
AcDbModelDocViewStyle
 70
     0
  3
Metric50
290
     0
100
AcDbSectionViewStyle
 70
     0
 71
     0
 90
      102
 71
     1
340
74
 62
   256
 40
5.0
340
0
340
0
 62
   256
 40
5.0
300
I, O, Q, S, X, Z
 40
10.0
 90
        0
 40
2.5
 90
        0
 71
     2
340
78
 90
       25
 62
   256
340
78
 90
       50
 62
   256
 40
5.0
 40
2.5
 40
5.0
 71
     3
340
74
 62
   256
 40
5.0
 90
        0
 40
15.0
 90
        1
300
%<\AcVar ViewSectionStartId>%-%<\AcVar ViewSectionEndId>% (%<\AcVar ViewScale \f "%sn">%)
 71
     4
 62
   256
 62
   257
300
ANSI31
 40
1.0
 90
        0
290
     0
290
     0
 90
        6
 40
0.0
 40
1.570796326794896
 40
0.2617993877991494
 40
1.308996938995747
 40
-0.2617993877991494
 40
1.832595714594046
  0
TABLESTYLE
  5
D7
102
{ACAD_XDICTIONARY
360
9A1
102
}
102
{ACAD_REACTORS
330
D6
102
}
330
D6
100
AcDbTableStyle
280
     0
  3

 70
     0
 71
     0
 40
0.06
 41
0.06
280
     0
281
     0
  7
STANDARD
140
0.25
170
     5
 62
     0
 63
     7
283
     0
 90
        4
 91
        0
  1

274
    -2
284
     1
 64
     0
275
    -2
285
     1
 65
     0
276
    -2
286
     1
 66
     0
277
    -2
287
     1
 67
     0
278
    -2
288
     1
 68
     0
279
    -2
289
     1
 69
     0
  7
STANDARD
140
0.18
170
     5
 62
     0
 63
     7
283
     0
 90
        4
 91
        0
  1

274
    -2
284
     1
 64
     0
275
    -2
285
     1
 65
     0
276
    -2
286
     1
 66
     0
277
    -2
287
     1
 67
     0
278
    -2
288
     1
 68
     0
279
    -2
289
     1
 69
     0
  7
STANDARD
140
0.18
170
     2
 62
     0
 63
     7
283
     0
 90
        4
 91
        0
  1

274
    -2
284
     1
 64
     0
275
    -2
285
     1
 65
     0
276
    -2
286
     1
 66
     0
277
    -2
287
     1
 67
     0
278
    -2
288
     1
 68
     0
279
    -2
289
     1
 69
     0
  0
VISUALSTYLE
  5
5E3
102
{ACAD_XDICTIONARY
360
BFB
102
}
102
{ACAD_REACTORS
330
5DE
102
}
330
5DE
100
AcDbVisualStyle
  2
2dWireframe
 70
     4
177
     2
291
     0
 71
     0
176
     1
 72
     2
176
     1
 73
     0
176
     1
 90
        0
176
     1
 40
0.6
176
     1
 41
30.0
176
     1
 63
     7
176
     1
 74
     1
176
     1
 91
        4
176
     1
 64
     7
176
     1
 65
   257
176
     1
 75
     1
176
     1
175
     1
176
     1
 42
1.0
176
     1
 92
        0
176
     1
 66
   257
176
     1
 43
1.0
176
     1
 76
     1
176
     1
 77
     6
176
     1
 78
     2
176
     1
 67
     7
176
     1
 79
     5
176
     1
170
     0
176
     1
171
     0
176
     1
290
     0
176
     1
 93
        1
176
     1
 44
0.0
176
     1
173
     0
176
     1
1001
ACAD
1000
AcDbSavedByObjectVersion
1070
     0
  0
VISUALSTYLE
  5
5E5
102
{ACAD_XDICTIONARY
360
BFF
102
}
102
{ACAD_REACTORS
330
5DE
102
}
330
5DE
100
AcDbVisualStyle
  2
3D Hidden
 70
     6
177
     2
291
     0
 71
     1
176
     1
 72
     2
176
     1
 73
     2
176
     1
 90
        0
176
     1
 40
0.6
176
     1
 41
30.0
176
     1
 63
     7
176
     1
 74
     2
176
     1
 91
        2
176
     1
 64
     7
176
     1
 65
   257
176
     1
 75
     2
176
     1
175
     1
176
     1
 42
40.0
176
     1
 92
        0
176
     1
 66
   257
176
     1
 43
1.0
176
     1
 76
     1
176
     1
 77
     6
176
     1
 78
     2
176
     1
 67
     7
176
     1
 79
     3
176
     1
170
     0
176
     1
171
     0
176
     1
290
     0
176
     1
 93
        1
176
     1
 44
0.0
176
     1
173
     0
176
     1
1001
ACAD
1000
AcDbSavedByObjectVersion
1070
     0
  0
VISUALSTYLE
  5
5E4
102
{ACAD_XDICTIONARY
360
BFD
102
}
102
{ACAD_REACTORS
330
5DE
102
}
330
5DE
100
AcDbVisualStyle
  2
3dWireframe
 70
     5
177
     2
291
     0
 71
     0
176
     1
 72
     2
176
     1
 73
     0
176
     1
 90
        0
176
     1
 40
0.6
176
     1
 41
30.0
176
     1
 63
     7
176
     1
 74
     1
176
     1
 91
        4
176
     1
 64
     7
176
     1
 65
   257
176
     1
 75
     1
176
     1
175
     1
176
     1
 42
1.0
176
     1
 92
        0
176
     1
 66
   257
176
     1
 43
1.0
176
     1
 76
     1
176
     1
 77
     6
176
     1
 78
     2
176
     1
 67
     7
176
     1
 79
     5
176
     1
170
     0
176
     1
171
     0
176
     1
290
     0
176
     1
 93
        1
176
     1
 44
0.0
176
     1
173
     0
176
     1
1001
ACAD
1000
AcDbSavedByObjectVersion
1070
     0
  0
VISUALSTYLE
  5
5E6
102
{ACAD_XDICTIONARY
360
C01
102
}
102
{ACAD_REACTORS
330
5DE
102
}
330
5DE
100
AcDbVisualStyle
  2
Basic
 70
     7
177
     2
291
     1
 71
     1
176
     1
 72
     0
176
     1
 73
     1
176
     1
 90
        0
176
     1
 40
0.6
176
     1
 41
30.0
176
     1
 63
     7
176
     1
 74
     0
176
     1
 91
        4
176
     1
 64
     7
176
     1
 65
   257
176
     1
 75
     1
176
     1
175
     1
176
     1
 42
1.0
176
     1
 92
        8
176
     1
 66
     7
176
     1
 43
1.0
176
     1
 76
     1
176
     1
 77
     6
176
     1
 78
     2
176
     1
 67
     7
176
     1
 79
     5
176
     1
170
     0
176
     1
171
     0
176
     1
290
     0
176
     1
 93
        1
176
     1
 44
0.0
176
     1
173
     0
176
     1
1001
ACAD
1000
AcDbSavedByObjectVersion
1070
     0
  0
VISUALSTYLE
  5
5EA
102
{ACAD_XDICTIONARY
360
C09
102
}
102
{ACAD_REACTORS
330
5DE
102
}
330
5DE
100
AcDbVisualStyle
  2
Brighten
 70
    12
177
     2
291
     1
 71
     2
176
     1
 72
     2
176
     1
 73
     0
176
     1
 90
        0
176
     1
 40
0.6
176
     1
 41
30.0
176
     1
 63
     7
176
     1
 74
     1
176
     1
 91
        4
176
     1
 64
     7
176
     1
 65
   257
176
     1
 75
     1
176
     1
175
     1
176
     1
 42
1.0
176
     1
 92
        8
176
     1
 66
     7
176
     1
 43
1.0
176
     1
 76
     1
176
     1
 77
     6
176
     1
 78
     2
176
     1
 67
     7
176
     1
 79
     5
176
     1
170
     0
176
     1
171
     0
176
     1
290
     0
176
     1
 93
        1
176
     1
 44
50.0
176
     1
173
     0
176
     1
1001
ACAD
1000
AcDbSavedByObjectVersion
1070
     0
  0
VISUALSTYLE
  5
5EE
102
{ACAD_XDICTIONARY
360
C11
102
}
102
{ACAD_REACTORS
330
5DE
102
}
330
5DE
100
AcDbVisualStyle
  2
ColorChange
 70
    16
177
     2
291
     1
 71
     2
176
     1
 72
     2
176
     1
 73
     3
176
     1
 90
        0
176
     1
 40
0.6
176
     1
 41
30.0
176
     1
 63
     8
176
     1
 74
     1
176
     1
 91
        4
176
     1
 64
     7
176
     1
 65
   257
176
     1
 75
     1
176
     1
175
     1
176
     1
 42
1.0
176
     1
 92
        8
176
     1
 66
     8
176
     1
 43
1.0
176
     1
 76
     1
176
     1
 77
     6
176
     1
 78
     2
176
     1
 67
     7
176
     1
 79
     5
176
     1
170
     0
176
     1
171
     0
176
     1
290
     0
176
     1
 93
        1
176
     1
 44
0.0
176
     1
173
     0
176
     1
1001
ACAD
1000
AcDbSavedByObjectVersion
1070
     0
  0
VISUALSTYLE
  5
5E8
102
{ACAD_XDICTIONARY
360
C05
102
}
102
{ACAD_REACTORS
330
5DE
102
}
330
5DE
100
AcDbVisualStyle
  2
Conceptual
 70
     9
177
     2
291
     0
 71
     3
176
     1
 72
     2
176
     1
 73
     0
176
     1
 90
        0
176
     1
 40
0.6
176
     1
 41
30.0
176
     1
 63
     7
176
     1
 74
     2
176
     1
 91
        2
176
     1
 64
     7
176
     1
 65
   257
176
     1
 75
     1
176
     1
175
     1
176
     1
 42
40.0
176
     1
 92
        8
176
     1
 66
     7
176
     1
 43
1.0
176
     1
 76
     1
176
     1
 77
     6
176
     1
 78
     2
176
     1
 67
     7
176
     1
 79
     3
176
     1
170
     0
176
     1
171
     0
176
     1
290
     0
176
     1
 93
        1
176
     1
 44
0.0
176
     1
173
     0
176
     1
1001
ACAD
1000
AcDbSavedByObjectVersion
1070
     0
  0
VISUALSTYLE
  5
5E9
102
{ACAD_XDICTIONARY
360
C07
102
}
102
{ACAD_REACTORS
330
5DE
102
}
330
5DE
100
AcDbVisualStyle
  2
Dim
 70
    11
177
     2
291
     1
 71
     2
176
     1
 72
     2
176
     1
 73
     0
176
     1
 90
        0
176
     1
 40
0.6
176
     1
 41
30.0
176
     1
 63
     7
176
     1
 74
     1
176
     1
 91
        4
176
     1
 64
     7
176
     1
 65
   257
176
     1
 75
     1
176
     1
175
     1
176
     1
 42
1.0
176
     1
 92
        8
176
     1
 66
     7
176
     1
 43
1.0
176
     1
 76
     1
176
     1
 77
     6
176
     1
 78
     2
176
     1
 67
     7
176
     1
 79
     5
176
     1
170
     0
176
     1
171
     0
176
     1
290
     0
176
     1
 93
        1
176
     1
 44
-50.0
176
     1
173
     0
176
     1
1001
ACAD
1000
AcDbSavedByObjectVersion
1070
     0
  0
VISUALSTYLE
  5
71D
102
{ACAD_XDICTIONARY
360
C1B
102
}
102
{ACAD_REACTORS
330
5DE
102
}
330
5DE
100
AcDbVisualStyle
  2
EdgeColorOff
 70
    22
177
     2
291
     1
 71
     2
176
     0
 72
     2
176
     0
 73
     0
176
     0
 90
        0
176
     0
 40
0.6
176
     0
 41
30.0
176
     0
 63
     7
176
     0
 74
     1
176
     0
 91
        4
176
     0
 64
     7
176
     0
 65
   257
176
     0
 75
     1
176
     0
175
     1
176
     0
 42
1.0
176
     0
 92
        8
176
     2
 66
     7
176
     0
 43
1.0
176
     0
 76
     1
176
     0
 77
     6
176
     0
 78
     2
176
     0
 67
     7
176
     0
 79
     5
176
     0
170
     0
176
     0
171
     0
176
     0
290
     0
176
     0
 93
        1
176
     0
 44
0.0
176
     0
173
     0
176
     0
1001
ACAD
1000
AcDbSavedByObjectVersion
1070
     0
  0
VISUALSTYLE
  5
5ED
102
{ACAD_XDICTIONARY
360
C0F
102
}
102
{ACAD_REACTORS
330
5DE
102
}
330
5DE
100
AcDbVisualStyle
  2
Facepattern
 70
    15
177
     2
291
     1
 71
     2
176
     1
 72
     2
176
     1
 73
     0
176
     1
 90
        0
176
     1
 40
0.6
176
     1
 41
30.0
176
     1
 63
     7
176
     1
 74
     1
176
     1
 91
        4
176
     1
 64
     7
176
     1
 65
   257
176
     1
 75
     1
176
     1
175
     1
176
     1
 42
1.0
176
     1
 92
        8
176
     1
 66
     7
176
     1
 43
1.0
176
     1
 76
     1
176
     1
 77
     6
176
     1
 78
     2
176
     1
 67
     7
176
     1
 79
     5
176
     1
170
     0
176
     1
171
     0
176
     1
290
     0
176
     1
 93
        1
176
     1
 44
0.0
176
     1
173
     0
176
     1
1001
ACAD
1000
AcDbSavedByObjectVersion
1070
     0
  0
VISUALSTYLE
  5
5DF
102
{ACAD_XDICTIONARY
360
BF3
102
}
102
{ACAD_REACTORS
330
5DE
102
}
330
5DE
100
AcDbVisualStyle
  2
Flat
 70
     0
177
     2
291
     1
 71
     2
176
     1
 72
     1
176
     1
 73
     1
176
     1
 90
        2
176
     1
 40
0.6
176
     1
 41
30.0
176
     1
 63
     7
176
     1
 74
     0
176
     1
 91
        4
176
     1
 64
     7
176
     1
 65
   257
176
     1
 75
     1
176
     1
175
     1
176
     1
 42
1.0
176
     1
 92
        8
176
     1
 66
     7
176
     1
 43
1.0
176
     1
 76
     1
176
     1
 77
     6
176
     1
 78
     2
176
     1
 67
     7
176
     1
 79
     5
176
     1
170
     0
176
     1
171
     0
176
     1
290
     0
176
     1
 93
       13
176
     1
 44
0.0
176
     1
173
     0
176
     1
1001
ACAD
1000
AcDbSavedByObjectVersion
1070
     0
  0
VISUALSTYLE
  5
5E0
102
{ACAD_XDICTIONARY
360
BF5
102
}
102
{ACAD_REACTORS
330
5DE
102
}
330
5DE
100
AcDbVisualStyle
  2
FlatWithEdges
 70
     1
177
     2
291
     1
 71
     2
176
     1
 72
     1
176
     1
 73
     1
176
     1
 90
        2
176
     1
 40
0.6
176
     1
 41
30.0
176
     1
 63
     7
176
     1
 74
     1
176
     1
 91
        4
176
     1
 64
     7
176
     1
 65
   257
176
     1
 75
     1
176
     1
175
     1
176
     1
 42
1.0
176
     1
 92
        0
176
     1
 66
   257
176
     1
 43
1.0
176
     1
 76
     1
176
     1
 77
     6
176
     1
 78
     2
176
     1
 67
     7
176
     1
 79
     5
176
     1
170
     0
176
     1
171
     0
176
     1
290
     0
176
     1
 93
       13
176
     1
 44
0.0
176
     1
173
     0
176
     1
1001
ACAD
1000
AcDbSavedByObjectVersion
1070
     0
  0
VISUALSTYLE
  5
5E1
102
{ACAD_XDICTIONARY
360
BF7
102
}
102
{ACAD_REACTORS
330
5DE
102
}
330
5DE
100
AcDbVisualStyle
  2
Gouraud
 70
     2
177
     2
291
     1
 71
     2
176
     1
 72
     2
176
     1
 73
     1
176
     1
 90
        2
176
     1
 40
0.6
176
     1
 41
30.0
176
     1
 63
     7
176
     1
 74
     0
176
     1
 91
        4
176
     1
 64
     7
176
     1
 65
   257
176
     1
 75
     1
176
     1
175
     1
176
     1
 42
1.0
176
     1
 92
        0
176
     1
 66
     7
176
     1
 43
1.0
176
     1
 76
     1
176
     1
 77
     6
176
     1
 78
     2
176
     1
 67
     7
176
     1
 79
     5
176
     1
170
     0
176
     1
171
     0
176
     1
290
     0
176
     1
 93
       13
176
     1
 44
0.0
176
     1
173
     0
176
     1
1001
ACAD
1000
AcDbSavedByObjectVersion
1070
     0
  0
VISUALSTYLE
  5
5E2
102
{ACAD_XDICTIONARY
360
BF9
102
}
102
{ACAD_REACTORS
330
5DE
102
}
330
5DE
100
AcDbVisualStyle
  2
GouraudWithEdges
 70
     3
177
     2
291
     1
 71
     2
176
     1
 72
     2
176
     1
 73
     1
176
     1
 90
        2
176
     1
 40
0.6
176
     1
 41
30.0
176
     1
 63
     7
176
     1
 74
     1
176
     1
 91
        4
176
     1
 64
     7
176
     1
 65
   257
176
     1
 75
     1
176
     1
175
     1
176
     1
 42
1.0
176
     1
 92
        0
176
     1
 66
   257
176
     1
 43
1.0
176
     1
 76
     1
176
     1
 77
     6
176
     1
 78
     2
176
     1
 67
     7
176
     1
 79
     5
176
     1
170
     0
176
     1
171
     0
176
     1
290
     0
176
     1
 93
       13
176
     1
 44
0.0
176
     1
173
     0
176
     1
1001
ACAD
1000
AcDbSavedByObjectVersion
1070
     0
  0
VISUALSTYLE
  5
71A
102
{ACAD_XDICTIONARY
360
C15
102
}
102
{ACAD_REACTORS
330
5DE
102
}
330
5DE
100
AcDbVisualStyle
  2
Hidden
 70
     6
177
     2
291
     0
 71
     1
176
     1
 72
     2
176
     1
 73
     2
176
     1
 90
        0
176
     1
 40
0.6
176
     1
 41
30.0
176
     1
 63
     7
176
     1
 74
     2
176
     1
 91
        2
176
     1
 64
     7
176
     1
 65
   257
176
     1
 75
     2
176
     1
175
     1
176
     1
 42
40.0
176
     1
 92
        0
176
     1
 66
   257
176
     1
 43
1.0
176
     1
 76
     1
176
     1
 77
     6
176
     1
 78
     2
176
     1
 67
     7
176
     1
 79
     3
176
     1
170
     0
176
     1
171
     0
176
     1
290
     0
176
     1
 93
        1
176
     1
 44
0.0
176
     1
173
     0
176
     1
1001
ACAD
1000
AcDbSavedByObjectVersion
1070
     0
  0
VISUALSTYLE
  5
71B
102
{ACAD_XDICTIONARY
360
C17
102
}
102
{ACAD_REACTORS
330
5DE
102
}
330
5DE
100
AcDbVisualStyle
  2
JitterOff
 70
    20
177
     2
291
     1
 71
     2
176
     0
 72
     2
176
     0
 73
     0
176
     0
 90
        0
176
     0
 40
0.6
176
     0
 41
30.0
176
     0
 63
     7
176
     0
 74
     1
176
     0
 91
        4
176
     0
 64
     7
176
     0
 65
   257
176
     0
 75
     1
176
     0
175
     1
176
     0
 42
1.0
176
     0
 92
       10
176
     2
 66
     7
176
     0
 43
1.0
176
     0
 76
     1
176
     0
 77
     6
176
     0
 78
     2
176
     0
 67
     7
176
     0
 79
     5
176
     0
170
     0
176
     0
171
     0
176
     0
290
     0
176
     0
 93
        1
176
     0
 44
0.0
176
     0
173
     0
176
     0
1001
ACAD
1000
AcDbSavedByObjectVersion
1070
     0
  0
VISUALSTYLE
  5
5EC
102
{ACAD_XDICTIONARY
360
C0D
102
}
102
{ACAD_REACTORS
330
5DE
102
}
330
5DE
100
AcDbVisualStyle
  2
Linepattern
 70
    14
177
     2
291
     1
 71
     2
176
     1
 72
     2
176
     1
 73
     0
176
     1
 90
        0
176
     1
 40
0.6
176
     1
 41
30.0
176
     1
 63
     7
176
     1
 74
     1
176
     1
 91
        4
176
     1
 64
     7
176
     1
 65
   257
176
     1
 75
     7
176
     1
175
     7
176
     1
 42
1.0
176
     1
 92
        8
176
     1
 66
     7
176
     1
 43
1.0
176
     1
 76
     1
176
     1
 77
     6
176
     1
 78
     2
176
     1
 67
     7
176
     1
 79
     5
176
     1
170
     0
176
     1
171
     0
176
     1
290
     0
176
     1
 93
        1
176
     1
 44
0.0
176
     1
173
     0
176
     1
1001
ACAD
1000
AcDbSavedByObjectVersion
1070
     0
  0
VISUALSTYLE
  5
71C
102
{ACAD_XDICTIONARY
360
C19
102
}
102
{ACAD_REACTORS
330
5DE
102
}
330
5DE
100
AcDbVisualStyle
  2
OverhangOff
 70
    21
177
     2
291
     1
 71
     2
176
     0
 72
     2
176
     0
 73
     0
176
     0
 90
        0
176
     0
 40
0.6
176
     0
 41
30.0
176
     0
 63
     7
176
     0
 74
     1
176
     0
 91
        4
176
     0
 64
     7
176
     0
 65
   257
176
     0
 75
     1
176
     0
175
     1
176
     0
 42
1.0
176
     0
 92
        9
176
     2
 66
     7
176
     0
 43
1.0
176
     0
 76
     1
176
     0
 77
     6
176
     0
 78
     2
176
     0
 67
     7
176
     0
 79
     5
176
     0
170
     0
176
     0
171
     0
176
     0
290
     0
176
     0
 93
        1
176
     0
 44
0.0
176
     0
173
     0
176
     0
1001
ACAD
1000
AcDbSavedByObjectVersion
1070
     0
  0
VISUALSTYLE
  5
5E7
102
{ACAD_XDICTIONARY
360
C03
102
}
102
{ACAD_REACTORS
330
5DE
102
}
330
5DE
100
AcDbVisualStyle
  2
Realistic
 70
     8
177
     2
291
     0
 71
     2
176
     1
 72
     2
176
     1
 73
     0
176
     1
 90
        0
176
     1
 40
0.6
176
     1
 41
30.0
176
     1
 63
     7
176
     1
 74
     1
176
     1
 91
        0
176
     1
 64
     7
176
     1
 65
   257
176
     1
 75
     1
176
     1
175
     1
176
     1
 42
1.0
176
     1
 92
        8
176
     1
 66
     8
176
     1
 43
1.0
176
     1
 76
     1
176
     1
 77
     6
176
     1
 78
     2
176
     1
 67
     7
176
     1
 79
     5
176
     1
170
     0
176
     1
171
     0
176
     1
290
     0
176
     1
 93
       13
176
     1
 44
0.0
176
     1
173
     0
176
     1
1001
ACAD
1000
AcDbSavedByObjectVersion
1070
     0
  0
VISUALSTYLE
  5
722
102
{ACAD_XDICTIONARY
360
C25
102
}
102
{ACAD_REACTORS
330
5DE
102
}
330
5DE
100
AcDbVisualStyle
  2
Shaded
 70
    27
177
     2
291
     0
 71
     2
176
     1
 72
     2
176
     1
 73
     1
176
     1
 90
        2
176
     1
 40
0.6
176
     1
 41
30.0
176
     1
 63
     7
176
     1
 74
     0
176
     1
 91
        4
176
     1
 64
     7
176
     1
 65
   257
176
     1
 75
     1
176
     1
175
     1
176
     1
 42
1.0
176
     1
 92
        8
176
     1
 66
   257
176
     1
 43
1.0
176
     1
 76
     1
176
     1
 77
     6
176
     1
 78
     2
176
     1
 67
     8
176
     1
 79
     3
176
     1
170
     0
176
     1
171
     0
176
     1
290
     0
176
     1
 93
        5
176
     1
 44
0.0
176
     1
173
     0
176
     1
1001
ACAD
1000
AcDbSavedByObjectVersion
1070
     0
  0
VISUALSTYLE
  5
721
102
{ACAD_XDICTIONARY
360
C23
102
}
102
{ACAD_REACTORS
330
5DE
102
}
330
5DE
100
AcDbVisualStyle
  2
Shaded with edges
 70
    26
177
     2
291
     0
 71
     2
176
     1
 72
     2
176
     1
 73
     1
176
     1
 90
        2
176
     1
 40
0.6
176
     1
 41
30.0
176
     1
 63
     7
176
     1
 74
     1
176
     1
 91
        2
176
     1
 64
     7
176
     1
 65
   257
176
     1
 75
     2
176
     1
175
     1
176
     1
 42
1.0
176
     1
 92
        8
176
     1
 66
   257
176
     1
 43
1.0
176
     1
 76
     1
176
     1
 77
     6
176
     1
 78
     2
176
     1
 67
     7
176
     1
 79
     3
176
     1
170
     0
176
     1
171
     0
176
     1
290
     0
176
     1
 93
        5
176
     1
 44
0.0
176
     1
173
     0
176
     1
1001
ACAD
1000
AcDbSavedByObjectVersion
1070
     0
  0
VISUALSTYLE
  5
71E
102
{ACAD_XDICTIONARY
360
C1D
102
}
102
{ACAD_REACTORS
330
5DE
102
}
330
5DE
100
AcDbVisualStyle
  2
Shades of Gray
 70
    23
177
     2
291
     0
 71
     2
176
     1
 72
     2
176
     1
 73
     3
176
     1
 90
        0
176
     1
 40
0.6
176
     1
 41
30.0
176
     1
 63
     7
176
     1
 74
     2
176
     1
 91
        2
176
     1
 64
     7
176
     1
 65
     7
176
     1
 75
     1
176
     1
175
     1
176
     1
 42
40.0
176
     1
 92
        8
176
     1
 66
     7
176
     1
 43
1.0
176
     1
 76
     1
176
     1
 77
     6
176
     1
 78
     2
176
     1
 67
     7
176
     1
 79
     3
176
     1
170
     0
176
     1
171
     0
176
     1
290
     0
176
     1
 93
        1
176
     1
 44
0.0
176
     1
173
     0
176
     1
1001
ACAD
1000
AcDbSavedByObjectVersion
1070
     0
  0
VISUALSTYLE
  5
71F
102
{ACAD_XDICTIONARY
360
C1F
102
}
102
{ACAD_REACTORS
330
5DE
102
}
330
5DE
100
AcDbVisualStyle
  2
Sketchy
 70
    24
177
     2
291
     0
 71
     1
176
     1
 72
     2
176
     1
 73
     2
176
     1
 90
        0
176
     1
 40
0.6
176
     1
 41
30.0
176
     1
 63
     7
176
     1
 74
     2
176
     1
 91
        2
176
     1
 64
     7
176
     1
 65
     7
176
     1
 75
     1
176
     1
175
     1
176
     1
 42
40.0
176
     1
 92
       11
176
     1
 66
     7
176
     1
 43
1.0
176
     1
 76
     1
176
     1
 77
     6
176
     1
 78
     2
176
     1
 67
     7
176
     1
 79
     6
176
     1
170
     0
176
     1
171
     0
176
     1
290
     0
176
     1
 93
        1
176
     1
 44
0.0
176
     1
173
     0
176
     1
1001
ACAD
1000
AcDbSavedByObjectVersion
1070
     0
  0
VISUALSTYLE
  5
5EB
102
{ACAD_XDICTIONARY
360
C0B
102
}
102
{ACAD_REACTORS
330
5DE
102
}
330
5DE
100
AcDbVisualStyle
  2
Thicken
 70
    13
177
     2
291
     1
 71
     2
176
     1
 72
     2
176
     1
 73
     0
176
     1
 90
        0
176
     1
 40
0.6
176
     1
 41
30.0
176
     1
 63
     7
176
     1
 74
     1
176
     1
 91
        4
176
     1
 64
     7
176
     1
 65
   257
176
     1
 75
     1
176
     1
175
     1
176
     1
 42
1.0
176
     1
 92
       12
176
     1
 66
     7
176
     1
 43
1.0
176
     1
 76
     1
176
     1
 77
     6
176
     1
 78
     2
176
     1
 67
     7
176
     1
 79
     5
176
     1
170
     0
176
     1
171
     0
176
     1
290
     0
176
     1
 93
        1
176
     1
 44
0.0
176
     1
173
     0
176
     1
1001
ACAD
1000
AcDbSavedByObjectVersion
1070
     0
  0
VISUALSTYLE
  5
719
102
{ACAD_XDICTIONARY
360
C13
102
}
102
{ACAD_REACTORS
330
5DE
102
}
330
5DE
100
AcDbVisualStyle
  2
Wireframe
 70
     5
177
     2
291
     0
 71
     0
176
     1
 72
     2
176
     1
 73
     0
176
     1
 90
        0
176
     1
 40
0.6
176
     1
 41
30.0
176
     1
 63
     7
176
     1
 74
     1
176
     1
 91
        4
176
     1
 64
     7
176
     1
 65
   257
176
     1
 75
     1
176
     1
175
     1
176
     1
 42
1.0
176
     1
 92
        0
176
     1
 66
   257
176
     1
 43
1.0
176
     1
 76
     1
176
     1
 77
     6
176
     1
 78
     2
176
     1
 67
     7
176
     1
 79
     3
176
     1
170
     0
176
     1
171
     0
176
     1
290
     0
176
     1
 93
        1
176
     1
 44
0.0
176
     1
173
     0
176
     1
1001
ACAD
1000
AcDbSavedByObjectVersion
1070
     0
  0
VISUALSTYLE
  5
720
102
{ACAD_XDICTIONARY
360
C21
102
}
102
{ACAD_REACTORS
330
5DE
102
}
330
5DE
100
AcDbVisualStyle
  2
X-Ray
 70
    25
177
     2
291
     0
 71
     2
176
     1
 72
     2
176
     1
 73
     1
176
     1
 90
        1
176
     1
 40
0.5
176
     1
 41
30.0
176
     1
 63
     7
176
     1
 74
     1
176
     1
 91
        0
176
     1
 64
     7
176
     1
 65
   257
176
     1
 75
     1
176
     1
175
     1
176
     1
 42
1.0
176
     1
 92
        8
176
     1
 66
     7
176
     1
 43
1.0
176
     1
 76
     1
176
     1
 77
     6
176
     1
 78
     2
176
     1
 67
     7
176
     1
 79
     3
176
     1
170
     0
176
     1
171
     0
176
     1
290
     0
176
     1
 93
       13
176
     1
 44
0.0
176
     1
173
     0
176
     1
1001
ACAD
1000
AcDbSavedByObjectVersion
1070
     0
  0
DICTIONARYVAR
  5
929
102
{ACAD_REACTORS
330
40B
102
}
330
40B
100
DictionaryVariables
280
     0
  1
1:1
  0
DICTIONARYVAR
  5
727
102
{ACAD_REACTORS
330
40B
102
}
330
40B
100
DictionaryVariables
280
     0
  1
STANDARD
  0
DICTIONARYVAR
  5
726
102
{ACAD_REACTORS
330
40B
102
}
330
40B
100
DictionaryVariables
280
     0
  1
STANDARD
  0
DICTIONARYVAR
  5
9EC
102
{ACAD_REACTORS
330
40B
102
}
330
40B
100
DictionaryVariables
280
     0
  1
Metric50
  0
DICTIONARYVAR
  5
9ED
102
{ACAD_REACTORS
330
40B
102
}
330
40B
100
DictionaryVariables
280
     0
  1
Metric50
  0
DICTIONARYVAR
  5
8B3
102
{ACAD_REACTORS
330
40B
102
}
330
40B
100
DictionaryVariables
280
     0
  1
2
  0
DICTIONARYVAR
  5
8B4
102
{ACAD_REACTORS
330
40B
102
}
330
40B
100
DictionaryVariables
280
     0
  1
1
  0
DICTIONARYVAR
  5
9EF
102
{ACAD_REACTORS
330
40B
102
}
330
40B
100
DictionaryVariables
280
     0
  1
1
  0
DICTIONARYVAR
  5
9F0
102
{ACAD_REACTORS
330
40B
102
}
330
40B
100
DictionaryVariables
280
     0
  1
15
  0
DICTIONARYVAR
  5
9EE
102
{ACAD_REACTORS
330
40B
102
}
330
40B
100
DictionaryVariables
280
     0
  1
0
  0
DICTIONARYVAR
  5
8C8
102
{ACAD_REACTORS
330
40B
102
}
330
40B
100
DictionaryVariables
280
     0
  1
1
  0
DICTIONARY
  5
BF2
102
{ACAD_REACTORS
330
BF0
102
}
330
BF0
100
AcDbDictionary
281
     1
  0
DICTIONARY
  5
BF1
102
{ACAD_REACTORS
330
BF0
102
}
330
BF0
100
AcDbDictionary
281
     1
  3
1111724526768
350
BEB
  3
1111724526784
350
BEC
  3
1111724526800
350
BED
  3
1111724526816
350
BEE
  3
1111724526832
350
BEF
  0
ACAD_PROXY_OBJECT
  5
778
102
{ACAD_REACTORS
330
777
102
}
330
777
100
AcDbProxyObject
 90
      499
 91
      510
 95
   393239
 70
     0
161
              1146
310
63948C9594D95D1D5C001C185C985B595D195C9CC00013585E15DA591D1A000200000000000000001014DB585B1B195CDD000200000000000000000011D85C129D5B5C000200000000000000380FD058D8DD5C9858DE40018001400000131A5B995CCB99949958DBD9DB9A5E9940014000400000105C98DCCB99949958DBD9
310
DB9A5E994001400040000000000000000C
 94
        0
  0
XRECORD
  5
7D1
102
{ACAD_REACTORS
330
774
102
}
330
774
100
AcDbXrecord
280
     1
300
MC_VERSION_DATA
 90
       95
310
0600000002000000570000001C000000E404000000000000000000007801936764E5D8CF7A8393818115C460606066E0646662626666706006F214793899F8DE3171E725E6E53B3BBA2878E6951050AF75FEFFFFFF520032DE0F3057000000
  0
XRECORD
  5
775
102
{ACAD_REACTORS
330
774
102
}
330
774
100
AcDbXrecord
280
     1
300
MCS_DOCUMENT_ID
 90
       60
310
0600000002000000150000001C000000E404000000000000000000007801E3BDB478A3556FF33A977D6BCBE5EBD6A5F5FE07020079490C8C15000000
  0
XRECORD
  5
7CF
102
{ACAD_REACTORS
330
774
102
}
330
774
100
AcDbXrecord
280
     1
300
MCS_PARAMS_DATA
 90
     3313
310
0600000002000000F64B00001C000000E404000000000000000000007801C55C5B6C5CC519DE9D595FD6B9DF494B53970A1A6F4A58DF92A6426A1A1210527090E23EF0543976A2BA75E25CAC160A6DA92AF5A55255A96AD556551F4A49A0CF15A03EC0438190865E482021147221409310B6900B3826B1FB7F7366CEFC73E6
310
1CAFBDDE3D9B07D8FF3F73CEF7DFE6FB67E6ECBA757EA3143929F767A4FCCE8636299AA49C90529036BB402C105929F279912F89C6DEAF6FD8BC69AB14A46C51EAC2B9898909BA39945F872C1FCD848A834A91A13B1AD51D6D5266E8A9FAF627E9AABE92BD45CA6F03BD81A3CFC24D59D990C96408C7E066656E0232E13A03
310
14B0AB01724443F05CC3F08780DFC8F19B03FC710A073DC8486413411B49060E3311A05C24C45064703B01D7CCE196A818E5C59C9268B967CBD6DED68ED59DC52EEB78BEF08E09F8223D745649346F1DE9DB35D0B777C089FC5FC3C8EB60BF1A286CF47FE3467F17CC59C5CD990B0CD948C1A77FB9F5CA0E4F479188EA541E
310
3C25A2E22BC99C8892456878B2821857F6B05492C2AD881B41409C21325211340605C9C6DC6006EC49AC088A0CCBB25B1159B72248E415019155047D5453031360047082A7405D92B72AB0F03379693EAB50870260AC609E2C6F6510BB3D081DFE4EF5EFECD71494A7B3590EC7F12C5B25CB32539229914732934ECE22AF1D
310
D259AC8B7B7649E437DE7BDFA69EADF76EE95186E95A7ED74C032DBFA66A9BF1CEF341B19B78E45DDED9EF56FE29189043E4814BF734E1FF34659991678231F23A51010DA578E8294D435524988818E84710A7B2643B4F7C134F5CC6936D1E4176D01398C4D0A83AE0A6BDC86B0BB5C3E1E8299D70A5A945AC12322FE697C4
310
9C8DC3BBBE34D2BA77FBEEA1BEFEED79D15C120DF70F0FEE1A093EF60C8FF47F4BCAB3B0ED666EDB17F5733E2B445B5E2C298985C507BB8BEBBA3A3A3774178B1D777FA5B36B9D327BBE1ED84C030BC74C9EDAB5B64D88BC405AEF1E1CD9D73A34B88F70838775AD5DDBD1B9B6BBABBB73A0ABA37F5D7BE0E757F57D1DB80F
310
037BFBB60D6D6F1DDED1DA3B3CB47D6FDF2EF8A0AD5933506CEF2FF6F7ADD9D6B56D5DFF9A60D6A95222FF670B51F8295953F8455019945B7EE9315C7A8AFEC352DE9D4B4A5050256AA6D1B42D5F0C265BEED4473538E9811F770DEFDCDD3732B86D706870E4A1D69DC303E45F6349C807B6EFCB8B8692103DC352AE816545
310
9E9E798813B5E9A692C86DD9B1A355A5424F8E0BF018466AF90D150136590E2905AA568F782650907D5A7180140B84AD0159F8156902B8F63BDA8BE1A72E29AF48322EA98B5F578631B6F5489B26184C63434803DB221A328E6B58DEAED6DB808FEB6DC068BD0DF8A4DE065CABB7018B3045EB390B3EAD7704C6EA6DC07518
310
10B79C17773A0DB6C361F03BDD064B22C8C7303844629E5064B47323116EB9039777E096BB70247238880C6E39831B9F221C81B3E543C57019D4736C30574EE2DD4AD73B12B9771099772B997713E97A974DF4CECD5D9582B938116EC00926492C777A7F676A8F441E4C882C98032C983211AE26DE8974E196022EC7174366
310
F9AE62C95769E105B5C4B012E2E82ED8CD3516C5E34D519CF0D1F6765A8551C6CC0505130A3E8ABEC46EF81CED54DC1DA04AB7BC4DB0CA082453194AB29B82400C2B438BA6322032B88FE093B3E13470C11297490C8EEF78E88158D51A8AD42283A38F61044E78707A57F8BBDFE2DF2167F36975041D1DA7FCF59430C35792
310
05112533A905D5D3CAAB4759DBB4CA160F3E9309466F934A1794E7E1154C402D3088858048DCDF7EA3E7FECD5B7A7B376D5480CBF43A7E5E49CCBE6BEB37D945B2402FC65F52AB73B67E7F3A58AE93F37A04F6B7011D680556EBCCA2819BC8A21C320F385BBDB4EE56E6E32CE2CB18E358AD7676B4C7C096B1674BAF7B1278
310
1E906198B0DF8681EA696AF34D20563061CAB731C0DB01185B8B0DCA46538BD880EB0E2C6FC3120B40E62289BC162112587895C11513E18290E892090EBF46A9321968C513E0BB89A0AE8F2431B88A7DFC9E07A7BD0A8E668E3AF3CDEA083A3A8ECFB770A00AB53712018F2859D8DB3D93C2E4D422CB77A40BB73A5DB807A7
310
0857A5727AC8838BE45965D0D3D5B29CBEEF99145F4E558AC0C3E9C23D922EDC0FD285FBA107E7958EEDE721E98018A3E3AAC64E7F5C166D7ABA81B65C437BB31D766C74A6ED6E1FBC2766B7AFDAD87156F9771BF44A2A724C461AB43EE729AAFB710D63E2111810BBA3ABC9AE6037E09AB9BF3AB40BE8309F8736AB64CAB2
310
BE7E3364E5AC569CA6976081AF5A311628A8EF68C5B3A4609E3E86AC3AA156E3E83562F4B5A292099A878C61EB3B549CF92354989982613F016CE7AD5A4D09AA1F5126387AAD451EE384D9C035A925859E39C1AA865EE9A9B8DA21CEE289167F7CF1D4C4BC7A125EC5AED5D8BB0B5A9D9144D134CFA71BF85A8D44BE568348
310
F6AA55A2F3CAEACF6982FD29118CC249D3CBF852A586F278BA70FBD3853B90085793EDE51E143F0AD06C6B4CB2242BDDBDD1419166C2865E85F9CE1648F3CBF54B2E655D5432557AB8C599EEE6E763403914E55050D879E2BFFA30F366F009F0CB378371CA9B99D05949929DD07465EA8797A3808B6B06B9536E64AF9C844C
310
903AF2F3709D3783A318A078E4F37AEBBCEC2DD1B228B722F785DC2DB9D64C476675A63353CC74E937B1FA39BFA7DB58A6AFC19E49583A4A9B6110A6BA038D3C80418F79D091B18A763C1D8524AA5361F194EC4CC4B23EDBA3192533E95398E41423EB6DCA1C239B4DBF91D13F6D762A6897D7013D496371DC8BECCAA7D45E
310
0C251095ABC98AA38E1B6540CD3DACF829EF15C38D27C2B92DA64A071D13897001094F16523EC1C9E5A99FF465029665AB5B13C49AF8984D174EA40B273D389D33BB29A272F6749622C2719C22AC925104534E7A8CF33714555C6B3CF3BE4BE0AF28994CA9B8353E0F28878DD26D8D2F007FBAAD11BD305CEB4EAB35BE08B8
310
B8D678FEB81BD9134AB6ADF10A644BBEF9C2334A81E4EAA6772450D87DD2AF49C178F020A0EBD3055FF292CC5B8AB3FC4114C86BA708ACDB15F49C43C04EBBE7FCBD0CA8A1CB2AF59CC3897035E1E39713E16AD873FE91085A131FFF19C04DBEDBF8D75406FD3B3A2842E56C8ABE82A171BC3BF89ECB0E0F287926BC7B0450
310
75E4DDA3C09F2EEF56BE2579157071BCBBE7881BD93E255BDE7D04B225A07C61BD5230DE1DBA8C1158736B225E412358525F03747D78F79897E472BCCBAF5BAF2BA0DDE3804E9B765F2F035A65DA3D910857134A7A2311AE52DA8D6E0E9C1341735A873DD47F12A16BE2E99BE9C275792B70532835F1AEDB838B7404B509F7
310
74C449519D9AA19EB28205FF5B08785CE3F9307262735AC933693C270155C7C6730AF8E9359ED3808B6B3CA387DDC6734EC9B6F1C897238DE72006D89713F9C2E58B91C6F3388D608DE70CA0A7DA7866D30F8008DC16BEAA2D26A2AAB848F4108A0CF46D0F54D7A73989E2C56D75B6B8431D2F6EAB64C5CD94644C04869974
310
1626C5B6A280378D1BEE62BCE2C3917700E714386FAA719B1D7E7D464DF7DD444F8317374E8CAA75BEF65E19D0F8F0523EC21D7470DCC60B8CAEF29753FC38EF4760CFDBF99B4673F680D0869F6742513F06849341B61DF57EE3400A02734628D75C0DBC8B68A868B98655ECA330208EA3C6F1B52E3DF1E8849E2433679564
310
431A886148B568E62C4406F75F64308EFD2F9D7039EA6D259B5B2BF91AD8396F72B01004EFC5CD6C88F911E8CCDF849C077E5C64E9488747967101058B73015D99FA9B900B808B63FFB117DCC85E50324556799F2F34BC086EC70CD18A4318C0D9FF2AB6807CDB718046B0A4BE0FE8B4D9FFA207EA504E3D7E65FA014C7226
310
B329B0E8D703AAFEBAA304E869379E693123CD68457958A4FF2F11AE86ECFF6119D078F6E7138AD87FF2370F86D6E1E34789702D76FED2134932CCA824CB8C811832A3160D33426421BD940847AF6F0C11D33DEECB1CFE9B7175D1F926045DE5BD8DBFBDBE9C081764D0049324E6DDB40A8607F34A225C4D16463974B5B836
310
F3B3A32E193EACE499B49986C93A780A6DA631A981D7A6CD34012EAECDFCF23937B23F51B26D337F80CCDBCC36A5C0ECD07DE7E7A7236D663D8D6033A419D0536D33E07F56B8C4CA7C0D48229F9610695A461A0883CE7B494E8DD95B004DF38E8247AB09FE45AC1A52EDAC32A0861DD8DA85D8A76276989D08579353913989
310
700119397510D9BB4CAB9DF096393711B4263ECE4B176E7EBA700B3C389DB3F0B5335AA6A7234288EA142D784A9083AFB414616018456CF64C3293C4CD2F49D3E5A5F0410CEE3E0F2E6A6FEA11580893E29AEE529C2FC11C4DF48D4AA628982DB44A422820F8563073C8F989CF2240392BED74F7768B819FDEDE6E09E0E29A
310
EE0AFA030B3CB273954C91D5916E83CC9BEE074FAB1E6B73B11CFB6CBEB73B4C23589D2D05F4CC9AAE2E4C768646F0614DBB4BD40606BDCC4B726A4DF72640A7DD749797013521AB4ED3C5971C1BF2225712D922FD192CAA82F186C253F467B664EED8B163100EA1787299890C1D4314EEF90B040C236113FD72905624B8F0
310
99FF03A92412CEF64B0000
  0
DICTIONARY
  5
C29
330
9E0
100
AcDbDictionary
280
     1
281
     1
  3
ACAD_XREC_ROUNDTRIP
360
C2A
  0
DICTIONARY
  5
ADE
330
80
100
AcDbDictionary
280
     1
281
     1
  3
ADSK_XREC_LAYOUTTHUMBNAIL
360
ADF
  0
DICTIONARY
  5
C27
330
9DE
100
AcDbDictionary
280
     1
281
     1
  3
ACAD_XREC_ROUNDTRIP
360
C28
  0
DICTIONARY
  5
9A1
330
D7
100
AcDbDictionary
280
     1
281
     1
  3
ACAD_ROUNDTRIP_2008_TABLESTYLE_CELLSTYLEMAP
360
BE9
  0
DICTIONARY
  5
BFB
330
5E3
100
AcDbDictionary
280
     1
281
     1
  3
ACAD_XREC_ROUNDTRIP
360
BFC
  0
DICTIONARY
  5
BFF
330
5E5
100
AcDbDictionary
280
     1
281
     1
  3
ACAD_XREC_ROUNDTRIP
360
C00
  0
DICTIONARY
  5
BFD
330
5E4
100
AcDbDictionary
280
     1
281
     1
  3
ACAD_XREC_ROUNDTRIP
360
BFE
  0
DICTIONARY
  5
C01
330
5E6
100
AcDbDictionary
280
     1
281
     1
  3
ACAD_XREC_ROUNDTRIP
360
C02
  0
DICTIONARY
  5
C09
330
5EA
100
AcDbDictionary
280
     1
281
     1
  3
ACAD_XREC_ROUNDTRIP
360
C0A
  0
DICTIONARY
  5
C11
330
5EE
100
AcDbDictionary
280
     1
281
     1
  3
ACAD_XREC_ROUNDTRIP
360
C12
  0
DICTIONARY
  5
C05
330
5E8
100
AcDbDictionary
280
     1
281
     1
  3
ACAD_XREC_ROUNDTRIP
360
C06
  0
DICTIONARY
  5
C07
330
5E9
100
AcDbDictionary
280
     1
281
     1
  3
ACAD_XREC_ROUNDTRIP
360
C08
  0
DICTIONARY
  5
C1B
330
71D
100
AcDbDictionary
280
     1
281
     1
  3
ACAD_XREC_ROUNDTRIP
360
C1C
  0
DICTIONARY
  5
C0F
330
5ED
100
AcDbDictionary
280
     1
281
     1
  3
ACAD_XREC_ROUNDTRIP
360
C10
  0
DICTIONARY
  5
BF3
330
5DF
100
AcDbDictionary
280
     1
281
     1
  3
ACAD_XREC_ROUNDTRIP
360
BF4
  0
DICTIONARY
  5
BF5
330
5E0
100
AcDbDictionary
280
     1
281
     1
  3
ACAD_XREC_ROUNDTRIP
360
BF6
  0
DICTIONARY
  5
BF7
330
5E1
100
AcDbDictionary
280
     1
281
     1
  3
ACAD_XREC_ROUNDTRIP
360
BF8
  0
DICTIONARY
  5
BF9
330
5E2
100
AcDbDictionary
280
     1
281
     1
  3
ACAD_XREC_ROUNDTRIP
360
BFA
  0
DICTIONARY
  5
C15
330
71A
100
AcDbDictionary
280
     1
281
     1
  3
ACAD_XREC_ROUNDTRIP
360
C16
  0
DICTIONARY
  5
C17
330
71B
100
AcDbDictionary
280
     1
281
     1
  3
ACAD_XREC_ROUNDTRIP
360
C18
  0
DICTIONARY
  5
C0D
330
5EC
100
AcDbDictionary
280
     1
281
     1
  3
ACAD_XREC_ROUNDTRIP
360
C0E
  0
DICTIONARY
  5
C19
330
71C
100
AcDbDictionary
280
     1
281
     1
  3
ACAD_XREC_ROUNDTRIP
360
C1A
  0
DICTIONARY
  5
C03
330
5E7
100
AcDbDictionary
280
     1
281
     1
  3
ACAD_XREC_ROUNDTRIP
360
C04
  0
DICTIONARY
  5
C25
330
722
100
AcDbDictionary
280
     1
281
     1
  3
ACAD_XREC_ROUNDTRIP
360
C26
  0
DICTIONARY
  5
C23
330
721
100
AcDbDictionary
280
     1
281
     1
  3
ACAD_XREC_ROUNDTRIP
360
C24
  0
DICTIONARY
  5
C1D
330
71E
100
AcDbDictionary
280
     1
281
     1
  3
ACAD_XREC_ROUNDTRIP
360
C1E
  0
DICTIONARY
  5
C1F
330
71F
100
AcDbDictionary
280
     1
281
     1
  3
ACAD_XREC_ROUNDTRIP
360
C20
  0
DICTIONARY
  5
C0B
330
5EB
100
AcDbDictionary
280
     1
281
     1
  3
ACAD_XREC_ROUNDTRIP
360
C0C
  0
DICTIONARY
  5
C13
330
719
100
AcDbDictionary
280
     1
281
     1
  3
ACAD_XREC_ROUNDTRIP
360
C14
  0
DICTIONARY
  5
C21
330
720
100
AcDbDictionary
280
     1
281
     1
  3
ACAD_XREC_ROUNDTRIP
360
C22
  0
XRECORD
  5
BEB
102
{ACAD_REACTORS
330
BF1
102
}
330
BF1
100
AcDbXrecord
280
     1
  1
AcDb_Thumbnail_Schema
102
{ATTRRECORD
341
BEC
  2
AcDbDs::TreatedAsObjectData
280
     1
291
     1
102
ATTRRECORD}
102
{ATTRRECORD
341
BED
  2
AcDbDs::Legacy
280
     1
291
     1
102
ATTRRECORD}
  2
AcDbDs::ID
280
    10
 91
        8
102
{ATTRRECORD
341
BEE
  2
AcDs:Indexable
280
     1
291
     1
102
ATTRRECORD}
102
{ATTRRECORD
341
BEF
  2
AcDbDs::HandleAttribute
280
     7
282
     1
102
ATTRRECORD}
  2
Thumbnail_Data
280
    15
 91
        0
  0
XRECORD
  5
BEC
102
{ACAD_REACTORS
330
BF1
102
}
330
BF1
100
AcDbXrecord
280
     1
  1
AcDbDs::TreatedAsObjectDataSchema
  2
AcDbDs::TreatedAsObjectData
280
     1
 91
        0
  0
XRECORD
  5
BED
102
{ACAD_REACTORS
330
BF1
102
}
330
BF1
100
AcDbXrecord
280
     1
  1
AcDbDs::LegacySchema
  2
AcDbDs::Legacy
280
     1
 91
        0
  0
XRECORD
  5
BEE
102
{ACAD_REACTORS
330
BF1
102
}
330
BF1
100
AcDbXrecord
280
     1
  1
AcDbDs::IndexedPropertySchema
  2
AcDs:Indexable
280
     1
 91
        0
  0
XRECORD
  5
BEF
102
{ACAD_REACTORS
330
BF1
102
}
330
BF1
100
AcDbXrecord
280
     1
  1
AcDbDs::HandleAttributeSchema
  2
AcDbDs::HandleAttribute
280
     7
 91
        1
284
     1
  0
XRECORD
  5
C2A
102
{ACAD_REACTORS
330
C29
102
}
330
C29
100
AcDbXrecord
280
     1
102
DISPLAYNAME
  1
Metric50
102
FLAGS
 90
        0
  0
XRECORD
  5
ADF
102
{ACAD_REACTORS
330
ADE
102
}
330
ADE
100
AcDbXrecord
280
     1
310
28000000000100005F0000000100080000000000005F00000100000001000000000100000000000030282100FFFFFF00302821000000000000000000000000000000000000000000000000000000000000000000330000006600000099000000CC000000FF00000000330000333300006633000099330000CC330000FF3300
310
0000660000336600006666000099660000CC660000FF66000000990000339900006699000099990000CC990000FF99000000CC000033CC000066CC000099CC0000CCCC0000FFCC000000FF000033FF000066FF000099FF0000CCFF0000FFFF000000003300330033006600330099003300CC003300FF003300003333003333
310
33006633330099333300CC333300FF33330000663300336633006666330099663300CC663300FF66330000993300339933006699330099993300CC993300FF99330000CC330033CC330066CC330099CC3300CCCC3300FFCC330000FF330033FF330066FF330099FF3300CCFF3300FFFF330000006600330066006600660099
310
006600CC006600FF00660000336600333366006633660099336600CC336600FF33660000666600336666006666660099666600CC666600FF66660000996600339966006699660099996600CC996600FF99660000CC660033CC660066CC660099CC6600CCCC6600FFCC660000FF660033FF660066FF660099FF6600CCFF6600
310
FFFF660000009900330099006600990099009900CC009900FF00990000339900333399006633990099339900CC339900FF33990000669900336699006666990099669900CC669900FF66990000999900339999006699990099999900CC999900FF99990000CC990033CC990066CC990099CC9900CCCC9900FFCC990000FF99
310
0033FF990066FF990099FF9900CCFF9900FFFF99000000CC003300CC006600CC009900CC00CC00CC00FF00CC000033CC003333CC006633CC009933CC00CC33CC00FF33CC000066CC003366CC006666CC009966CC00CC66CC00FF66CC000099CC003399CC006699CC009999CC00CC99CC00FF99CC0000CCCC0033CCCC0066CC
310
CC0099CCCC00CCCCCC00FFCCCC0000FFCC0033FFCC0066FFCC0099FFCC00CCFFCC00FFFFCC000000FF003300FF006600FF009900FF00CC00FF00FF00FF000033FF003333FF006633FF009933FF00CC33FF00FF33FF000066FF003366FF006666FF009966FF00CC66FF00FF66FF000099FF003399FF006699FF009999FF00CC
310
99FF00FF99FF0000CCFF0033CCFF0066CCFF0099CCFF00CCCCFF00FFCCFF0000FFFF0033FFFF0066FFFF0099FFFF00CCFFFF00FFFFFF00000000000D0D0D001A1A1A00282828003535350043434300505050005D5D5D006B6B6B00787878008686860093939300A1A1A100AEAEAE00BBBBBB00C9C9C900D6D6D600E4E4E400
310
F1F1F100FFFFFF000000000000000000000000000000000000000000000000000000000000000000000000000000000000000000000000000000000000000000000000000000000000000000000000000000000000000000000000000000000000000000000000000000000000000000000000000000000000000000000000
310
00000000000000000000000000000000000000000000000000000000000000000000000000000000000000000000000000000000000000000000000000000000000000000000000000000000000000000000000000000000000000000000000000000000000000000000000000000000000000000000000000000000000000
310
00000000000000000000000000000000000000000000000000000000000000000000000000000000000000000000000000000000000000000000000000000000000000000000000000000000000000000000000000000000000000000000000000000000000000000000000000000000000000000000000000000000000000
310
00000000000000000000000000000000000000000000000000000000000000000000000000000000000000000000000000000000000000000000000000000000000000000000000000000000000000000000000000000000000000000000000000000000000000000000000000000000000000000000000000000000000000
310
00000000000000000000000000000000000000000000000000000000000000000000000000000000000000000000000000000000000000000000000000000000000000000000000000000000000000000000000000000000000000000000000000000000000000000000000000000000000000000000000000000000000000
310
00000000000000000000000000000000000000000000000000000000000000000000000000000000000000000000000000000000000000000000000000000000000000000000000000000000000000000000000000000000000000000000000000000000000000000000000000000000000000000000000000000000000000
310
00000000000000000000000000000000000000000000000000000000000000000000000000000000000000000000000000000000000000000000000000000000000000000000000000000000000000000000000000000000000000000000000000000000000000000000000000000000000000000000000000000000000000
310
00000000000000000000000000000000000000000000000000000000000000000000000000000000000000000000000000000000000000000000000000000000000000000000000000000000000000000000000000000000000000000000000000000000000000000000000000000000000000000000000000000000000000
310
00000000000000000000000000000000000000000000000000000000000000000000000000000000000000000000000000000000000000000000000000000000000000000000000000000000000000000000000000000000000000000000000000000000000000000000000000000000000000000000000000000000000000
310
00000000000000000000000000000000000000000000000000000000000000000000000000000000000000000000000000000000000000000000000000000000000000000000000000000000000000000000000000000000000000000000000000000000000000000000000000000000000000000000000000000000000000
310
00000000000000000000000000000000000000000000000000000000000000000000000000000000000000000000000000000000000000000000000000000000000000000000000000000000000000000000000000000000000000000000000000000000000000000000000000000000000000000000000000000000000000
310
00000000000000000000000000000000000000000000000000000000000000000000000000000000000000000000000000000000000000000000000000000000000000000000000000000000000000000000000000000000000000000000000000000000000000000000000000000000000000000000000000000000000000
310
00000000000000000000000000000000000000000000000000000000000000000000000000000000000000000000000000000000000000000000000000000000000000000000000000000000000000000000000000000000000000000000000000000000000000000000000000000000000000000000000000000000000000
310
00000000000000000000000000000000000000000000000000000000000000000000000000000000000000000000000000000000000000000000000000000000000000000000000000000000000000000000000000000000000000000000000000000000000000000000000000000000000000000000000000000000000000
310
00000000000000000000000000000000000000000000000000000000000000000000000000000000000000000000000000000000000000000000000000000000000000000000000000000000000000000000000000000000000000000000000000000000000000000000000000000000000000000000000000000000000000
310
00000000000000000000000000000000000000000000000000000000000000000000000000000000000000000000000000000000000000000000000000000000000000000000000000000000000000000000000000000000000000000000000000000000000000000000000000000000000000000000000000000000000000
310
00000000000000000000000000000000000000000000000000000000000000000000000000000000000000000000000000000000000000000000000000000000000000000000000000000000000000000000000000000000000000000000000000000000000000000000000000000000000000000000000000000000000000
310
00000000000000000000000000000000000000000000000000000000000000000000000000000000000000000000000000000000000000000000000000000000000000000000000000000000000000000000000000000000000000000000000000000000000000000000000000000000000000000000000000000000000000
310
00000000000000000000000000000000000000000000000000000000000000000000000000000000000000000000000000000000000000000000000000000000000000000000000000000000000000000000000000000000000000000000000000000000000000000000000000000000000000000000000000000000000000
310
00000000000000000000000000000000000000000000000000000000000000000000000000000000000000000000000000000000000000000000000000000000000000000000000000000000000000000000000000000000000000000000000000000000000000000000000000000000000000000000000000000000000000
310
00000000000000000000000000000000000000000000000000000000000000000000000000000000000000000000000000000000000000000000000000000000000000000000000000000000000000000000000000000000000000000000000000000000000000000000000000000000000000000000000000000000000000
310
00000000000000000000000000000000000000000000000000000000000000000000000000000000000000000000000000000000000000000000000000000000000000000000000000000000000000000000000000000000000000000000000000000000000000000000000000000000000000000000000000000000000000
310
00000000000000000000000000000000000000000000000000000000000000000000000000000000000000000000000000000000000000000000000000000000000000000000000000000000000000000000000000000000000000000000000000000000000000000000000000000000000000000000000000000000000000
310
00000000000000000000000000000000000000000000000000000000000000000000000000000000000000000000000000000000000000000000000000000000000000000000000000000000000000000000000000000000000000000000000000000000000000000000000000000000000000000000000000000000000000
310
00000000000000000000000000000000000000000000000000000000000000000000000000000000000000000000000000000000000000000000000000000000000000000000000000000000000000000000000000000000000000000000000000000000000000000000000000000000000000000000000000000000000000
310
00000000000000000000000000000000000000000000000000000000000000000000000000000000000000000000000000000000000000000000000000000000000000000000000000000000000000000000000000000000000000000000000000000000000000000000000000000000000000000000000000000000000000
310
00000000000000000000000000000000000000000000000000000000000000000000000000000000000000000000000000000000000000000000000000000000000000000000000000000000000000000000000000000000000000000000000000000000000000000000000000000000000000000000000000000000000000
310
00000000000000000000000000000000000000000000000000000000000000000000000000000000000000000000000000000000000000000000000000000000000000000000000000000000000000000000000000000000000000000000000000000000000000000000000000000000000000000000000000000000000000
310
00000000000000000000000000000000000000000000000000000000000000000000000000000000000000000000000000000000000000000000000000000000000000000000000000000000000000000000000000000000000000000000000000000000000000000000000000000000000000000000000000000000000000
310
00000000000000000000000000000000000000000000000000000000000000000000000000000000000000000000000000000000000000000000000000000000000000000000000000000000000000000000000000000000000000000000000000000000000000000000000000000000000000000000000000000000000000
310
00000000000000000000000000000000000000000000000000000000000000000000000000000000000000000000000000000000000000000000000000000000000000000000000000000000000000000000000000000000000000000000000000000000000000000000000000000000000000000000000000000000000000
310
00000000000000000000000000000000000000000000000000000000000000000000000000000000000000000000000000000000000000000000000000000000000000000000000000000000000000000000000000000000000000000000000000000000000000000000000000000000000000000000000000000000000000
310
00000000000000000000000000000000000000000000000000000000000000000000000000000000000000000000000000000000000000000000000000000000000000000000000000000000000000000000000000000000000000000000000000000000000000000000000000000000000000000000000000000000000000
310
00000000000000000000000000000000000000000000000000000000000000000000000000000000000000000000000000000000000000000000000000000000000000000000000000000000000000000000000000000000000000000000000000000000000000000000000000000000000000000000000000000000000000
310
00000000000000000000000000000000000000000000000000000000000000000000000000000000000000000000000000000000000000000000000000000000000000000000000000000000000000000000000000000000000000000000000000000000000000000000000000000000000000000000000000000000000000
310
00000000000000000000000000000000000000000000000000000000000000000000000000000000000000000000000000000000000000000000000000000000000000000000000000000000000000000000000000000000000000000000000000000000000000000000000000000000000000000000000000000000000000
310
00000000000000000000000000000000000000000000000000000000000000000000000000000000000000000000000000000000000000000000000000000000000000000000000000000000000000000000000000000000000000000000000000000000000000000000000000000000000000000000000000000000000000
310
00000000000000000000000000000000000000000000000000000000000000000000000000000000000000000000000000000000000000000000000000000000000000000000000000000000000000000000000000000000000000000000000000000000000000000000000000000000000000000000000000000000000000
310
00000000000000000000000000000000000000000000000000000000000000000000000000000000000000000000000000000000000000000000000000000000000000000000000000000000000000000000000000000000000000000000000000000000000000000000000000000000000000000000000000000000000000
310
00000000000000000000000000000000000000000000000000000000000000000000000000000000000000000000000000000000000000000000000000000000000000000000000000000000000000000000000000000000000000000000000000000000000000000000000000000000000000000000000000000000000000
310
00000000000000000000000000000000000000000000000000000000000000000000000000000000000000000000000000000000000000000000000000000000000000000000000000000000000000000000000000000000000000000000000000000000000000000000000000000000000000000000000000000000000000
310
00000000000000000000000000000000000000000000000000000000000000000000000000000000000000000000000000000000000000000000000000000000000000000000000000000000000000000000000000000000000000000000000000000000000000000000000000000000000000000000000000000000000000
310
00000000000000000000000000000000000000000000000000000000000000000000000000000000000000000000000000000000000000000000000000000000000000000000000000000000000000000000000000000000000000000000000000000000000000000000000000000000000000000000000000000000000000
310
00000000000000000000000000000000000000000000000000000000000000000000000000000000000000000000000000000000000000000000000000000000000000000000000000000000000000000000000000000000000000000000000000000000000000000000000000000000000000000000000000000000000000
310
00000000000000000000000000000000000000000000000000000000000000000000000000000000000000000000000000000000000000000000000000000000000000000000000000000000000000000000000000000000000000000000000000000000000000000000000000000000000000000000000000000000000000
310
0000000000000000000000000000000000000000000000000000000000000000000000000000000000000000000000000000000000000000000000000000000F0F0F0F0F0F0F0F0F0F0F0F0F0F0F0F0F0F0F0F0F0F0F0F0F0F0F0F0F0F0F0F0F0F0F0F0F0F0F0F0F0F0F0F0F0F0F0F0F0F0F0F0F0F0F0F0F0F0F0F0F0F0F0F
310
0F0F0F0F0F0000000000000000000000000000000000000000000000000000000000000000000000000000000000000000000000000000000000000000000000000000000000000000000000000000000000000000000000000000000000000000000000000000000000000000000000000000000000000000000000000000
310
0000000000000000000000000000000000000000000000000000000000000000000000000000000000000000000000000000000000000000000000000000000000290F00000000000000000000000000000000000000000000000000BEBEBEBEBEBE00000000BEBEBEBEBEBEBEBEBEBEBEBE00000000000000000000000000
310
00000000000F29000000000000000000000000000000000000000000000000000000000000000000000000000000000000000000000000000000000000000000000000000000000000000000000000000000000000000000000000000000000000000000000000000000000000000000000000000000000000000000000000
310
0000000000000000000000000000000000000000000000000000000000000000000000000000000000000000000000000000000000000000000000000000000000000029000F292929292929292929292929292929292929292929292929292929292929292929292929292929292929292929292929292929292929292929
310
2929292929290F002900000000000000000000000000000000000000000000000000000000000000000000000000000000000000000000000000000000000000000000000000000000000000000000000000000000000000000000000000000000000000000000000000000000000000000000000000000000000000000000
310
00000000000000000000000000000000000000000000000000000000000000000000000000000000000000000000000000000000000000000000000000000000000000000029BEBE0F000000000000000000000000000000000000000000290000000000000000292900000000000000000000000000000000000000000000
310
000000000000000F2900290000000000000000000000000000000000000000000000000000000000000000000000000000000000000000000000000000000000000000000000000000000000000000000000000000000000000000000000000000000000000000000000000000000000000000000000000000000000000000
310
00000000000000000000000000000000000000000000000000000000000000000000000000000000000000000000000000000000000000000000000000000000000000000000002900BE290F000000000000000000000000000000000000000029000000000000000029290000000000000000000000000000000000000000
310
00000000000000000F00290029000000000000000000000000000000000000000000000000000000000000000000000000000000000000000000000000000000000000000000000000000000000000000000000000000000000000000000000000000000000000000000000000000000000000000000000000000000000000
310
000000000000000000000000000000000000000000000000000000000000000000000000000000000000000000000000000000000000000000000000000000000000000000000000002900BE29000F000000000000000000000000000000000000002900000000000000002929000000000000000000000000000000000000
310
0000000000000000000F000029002900000000000000000000000000000000000000000000000000000000000000000000000000000000000000000000000000000000000000000000000000000000000000000000000000000000000000000000000000000000000000000000000000000000000000000000000000000000
310
0000000000000000000000000000000000000000000000000000000000000000000000000000000000000000000000000000000000000000000000000000000000000000000000000000002900BE2900000F000000000000000000000000000000000000290000000000000000292900000000000000000000000000000000
310
000000000000000000000F0000002900290000000000000000000000000000000000000000000000000000000000000000000000000000000000000000000000000000000000000000000000000000000000000000000000000000000000000000000000000000000000000000000000000000000000000000000000000000
310
00000000000000000000000000000000000000000000000000000000000000000000000000000000000000000000000000000000000000000000000000000000000000000000000000000000002900BE290000000F000000000000000000000000000000000029000000000000000029290000000000000000000000000000
310
000000000000000000000F0F00000000290029000000000000000000000000000000000000000000000000000000000000000000000000000000000000000000000000000000000000000000000000000000000000000000000000000000000000000000000000000000000000000000000000000000000000000000000000
310
000000000000000000000000000000000000000000000000000000000000000000000000000000000000000000000000000000000000000000000000000000000000000000000000000000000000002900BE29000000000F000000000000000000000000000000002900000000000000002929000000000000000000000000
310
00000000000000000000000F00000000000029002900000000000000000000000000000000000000000000000000000000000000000000000000000000000000000000000000000000000000000000000000000000000000000000000000000000000000000000000000000000000000000000000000000000000000000000
310
00000000000000000000000000000000000000000000000000000000000000000000000000000000000000000000000000000000000000000000000000000000000000000000000000000000000000000029BEBE2900000000000F000000000000000000000000000000290000000000000000292900000000000000000000
310
0000000000000000000000000F000000000000002900290000000000000000000000000000000000000000000000000000000000000000000000000000000000000000000000000000000000000000000000000000000000000000000000000000000000000000000000000000000000000000000000000000000000000000
310
0000000000000000000000000000000000000000000000000000000000000000000000000000000000000000000000000000000000000000000000000000000000000000000000000000000000000000000000290000290000000000000F000000000000000000000000000029000000000000000029290000000000000000
310
000000000000000000000000000F0000000000000000290029000000000000000000000000000000000000000000000000000000000000000000000000000000000000000000000000000000000000000000000000000000000000000000000000000000000000000000000000000000000000000000000000000000000000
310
0000000000000000000000000000000000000000000000000000000000000000000000000000000000000000000000000000000000000000000000000000000000000000000000000000000000000000000000000029000029000000000000000F000000000000000000000000002900000000000000002929000000000000
310
00000000000000000000000000000F00000000000000000029002900000000000000000000000000000000000000000000000000000000000000000000000000000000000000000000000000000000000000000000000000000000000000000000000000000000000000000000000000000000000000000000000000000000
310
0000000000000000000000000000000000000000000000000000000000000000000000000000000000000000000000000000000000000000000000000000000000000000000000000000000000000000000000000000002900002900000000000000000F000000000000000000000000290000000000000000292900000000
310
0000000000000000000000000000000F000000000000000000002900290000000000000000000000000000000000000000000000000000000000000000000000000000000000000000000000000000000000000000000000000000000000000000000000000000000000000000000000000000000000000000000000000000
310
0000000000000000000000000000000000000000000000000000000000000000000000000000000000000000000000000000000000000000000000000000000000000000000000000000000000000000000000000000000000290000290000000000000000000F000000000000000000000029000000000000000029290000
310
000000000000000000000000000000000F0000000000000000000000290029000000000000000000000000000000000000000000000000000000000000000000000000000000000000000000000000000000000000000000000000000000000000000000000000000000000000000000000000000000000000000000000000
310
0000000000000000000000000000000000000000000000000000000000000000000000000000000000000000000000000000000000000000000000000000000000000000000000000000000000000000000000000000000000000029000029000000000029292900000F0F0000000000000000002900000000000000002929
310
00000000000000000000000000000000000F00000000000000000000000029002900000000000000000000000000000000000000000000000000000000000000000000000000000000000000000000000000000000000000000000000000000000000000000000000000000000000000000000000000000000000000000000
310
000000000000000000000000000000000000000000000000000000000000000000000000000000000000000000000000000000000000000000000000000000000000000000000000000000000000000000000000000000000000000000290000290000000000292929000000000F0000000000000000290029290000000000
310
2929000000000000000000000000000000000F000000000000000000000000002900290000000000000000000000000000000000000000000000000000000000000000000000000000000000000000000000000000000000000000000000000000000000000000000000000000000000000000000000000000000000000000
310
000000000000000000000000000000000000000000000000000000000000000000000000000000000000000000000000000000000000000000000000000000000000000000000000000000000000000000000000000000000000000000000029000029000000000000000000000000000F0000000000000029002929000000
310
000029290000000000000000000000000000000F0000000000000000000000000000290029000000000000000000000000000000000000000000000000000000000000000000000000000000000000000000000000000000000000000000000000000000000000000000000000000000000000000000000000000000000000
310
000000000000000000000000000000000000000000000000000000000000000000000000000000000000000000000000000000000000000000000000000000000000000000000000000000000000000000000000000000000000000000000000002900002900000000000000000000000000000F0000000000002900000000
310
00000000292900000000000000000000000000000F00000000000000000000000000000029002900000000000000000000000000000000000000000000000000000000000000000000000000000000000000000000000000000000000000000000000000000000000000000000000000000000000000000000000000000000
310
000000000000000000000000000000000000000000000000000000000000000000000000000000000000000000000000000000000000000000000000000000000000000000000000000000000000000000000000000000000000000000000000000000290000290000000000000000000000000000000F0000000000290000
310
0000000000002929000000000000000000000000000F000000000000000000000000000000002900290000000000000000000000000000000000000000000000000000000000000000000000000000000000000000000000000000000000000000000000000000000000000000000000000000000000000000000000000000
310
000000000000000000000000000000000000000000000000000000000000000000000000000000000000000000000000000000000000000000000000000000000000000000000000000000000000000000000000000000000000000000000000000000000029000029000000000000000000000000000000000F0000000029
310
000000000000000029290000000000000000000000000F0000000000000000000000000000000000290029000000000000000000000000000000000000000000000000000000000000000000000000000000000000000000000000000000000000000000000000000000000000000000000000000000000000000000000000
310
000000000000000000000000000000000000000000000000000000000000000000000000000000000000000000000000000000000000000000000000000000000000000000000000000000000000000000000000000000000000000000000000000000000000002900002929292929292929292929292929292929290F0000
310
29292900000029292929292900000000000000000000000F00000000000000000000000000000000000029002900000000000000000000000000000000000000000000000000000000000000000000000000000000000000000000000000000000000000000000000000000000000000000000000000000000000000000000
310
00000000000000000000000000000000000000000000000000000000000000000000000000000000000000000000000000000000000000000000000000000000000000000000000000000000000000000000000000000000000000000000000000000000000000000029000029000000000000000000000000000000292900
310
0F000000000000000000000029290000000000000000000F0F000000000000000000000000000000000000002900290000000000000000000000000000000000000000000000000000000000000000000000000000000000000000000000000000000000000000000000000000000000000000000000000000000000000000
310
000000000000000000000000000000000000000000000000000000000000000000000000000000000000000000000000000000000000000000000000000000000000000000000000000000000000000000000000000000000000000000000000000000000000000000000029BEBE2900000000000000000000000000000000
310
0000000F00000000000000000000292900000000000000000F292900000000000000000000000000000000000000290029000000000000000000000000000000000000000000000000000000000000000000000000000000000000000000000000000000000000000000000000000000000000000000000000000000000000
310
000000000000000000000000000000000000000000000000000000000000000000000000000000000000000000000000000000000000000000000000000000000000000000000000000000000000000000000000000000000000000000000000000000000000000000000000002900BE290000000000000000000000000000
310
0000000000000F0000000000000000002929000000000000000F0029290000000000000000000000000000000000000029002900000000000000000000000000000000000000000000000000000000000000000000000000000000000000000000000000000000000000000000000000000000000000000000000000000000
310
0000000000000000000000000000000000000000000000000000000000000000000000000000000000000000000000000000000000000000000000000000000000000000000000000000000000000000000000000000000000000000000000000000000000000000000000000000002900BE29000000000000000000000000
310
0000002929000000000F000000000000000029290000000000000F00000000000000000000000000000000000000000000002900290000000000000000000000000000000000000000000000000000000000000000000000000000000000000000000000000000000000000000000000000000000000000000000000000000
310
00000000000000000000000000000000000000000000000000000000000000000000000000000000000000000000000000000000000000000000000000000000000000000000000000000000000000000000000000000000000000000000000000000000000000000000000000000000002900BE2900000000000000000000
310
0000000000292929292929290F29000000000000292900000000000F000000000000000000000000000000000000000000000000290029000000000000000000000000000000000000000000000000000000000000000000000000000000000000000000000000000000000000000000000000000000000000000000000000
310
000000000000000000000000000000000000000000000000000000000000000000000000000000000000000000000000000000000000000000000000000000000000000000000000000000000000000000000000000000000000000000000000000000000000000000000000000000000000002900BE290000000000000000
310
0000000000000000000000000029000F0000000000000029000000000F0000000000000000000000000000000000000000000000000029002900000000000000000000000000000000000000000000000000000000000000000000000000000000000000000000000000000000000000000000000000000000000000000000
310
0000000000000000000000000000000000000000000000000000000000000000000000000000000000000000000000000000000000000000000000000000000000000000000000000000000000000000000000000000000000000000000000000000000000000000000000000000000000000000002900BE29000000000000
310
0000000000000000000000000000002900290F000000000000290000000F00000000000000000000000000000000000000000000000000002900290000000000000000000000000000000000000000000000000000000000000000000000000000000000000000000000000000000000000000000000000000000000000000
310
000000000000000000000000000000000000000000000000000000000000000000000000000000000000000000000000000000000000000000000000000000000000000000000000000000000000000000000000000000000000000000000000000000000000000000000000000000000000000000000029BEBE2900000000
310
0000000000000000000000000000000000292929000F0F0F0F0F0F0F0F0F0F000000000000000000000000000000000000000000000000000000290029000000000000000000000000000000000000000000000000000000000000000000000000000000000000000000000000000000000000000000000000000000000000
310
00000000000000000000000000000000000000000000000000000000000000000000000000000000000000000000000000000000000000000000000000000000000000000000000000000000000000000000000000000000000000000000000000000000000000000000000000000000000000000000000000290000290000
310
000000000000000000000000000000000000002929290F000000000000290000000F000000000000000000000000000000000000000000000000000029002900000000000000000000000000000000000000000000000000000000000000000000000000000000000000000000000000000000000000000000000000000000
310
00000000000000000000000000000000000000000000000000000000000000000000000000000000000000000000000000000000000000000000000000000000000000000000000000000000000000000000000000000000000000000000000000000000000000000000000000000000000000000000000000000029000029
310
00000000000000000000000000000000000000000029290F0000000000000029000000000F0000000000000000000000000000000000000000000000000029BE290000000000000000000000000000000000000000000000000000000000000000000000000000000000000000000000000000000000000000000000000000
310
00000000000000000000000000000000000000000000000000000000000000000000000000000000000000000000000000000000000000000000000000000000000000000000000000000000000000000000000000000000000000000000000000000000000000000000000000000000000000000000000000000000002900
310
0029000000000000292900000000000000000000000000290F29000029000000002900000000000F00000000000000000000000000000000000000000000000029BE29000000000000000000000000000000000000000000000000000000000000000000000000000000000000000000000000000000000000000000000000
310
00000000000000000000000000000000000000000000000000000000000000000000000000000000000000000000000000000000000000000000000000000000000000000000000000000000000000000000000000000000000000000000000000000000000000000000000000000000000000000000000000000000000000
310
290000290000000000002929000000000000000000000000000F292900002900000000290000000000000F000000000000000000000000000000000000000000000029BE2900000000000000000000000000000000000000000000000000000000000000000000000000000000000000000000000000000000000000000000
310
00000000000000000000000000000000000000000000000000000000000000000000000000000000000000000000000000000000000000000000000000000000000000000000000000000000000000000000000000000000000000000000000000000000000000000000000000000000000000000000000000000000000000
310
00002900002900000000000000000000000000000000000000000F2929290000000000000029000000000000000F0000000000000000000000000000000000000000000029BE290000000000000000000000000000000000000000000000000000000000000000000000000000000000000000000000000000000000000000
310
00000000000000000000000000000000000000000000000000000000000000000000000000000000000000000000000000000000000000000000000000000000000000000000000000000000000000000000000000000000000000000000000000000000000000000000000000000000000000000000000000000000000000
310
0000000029000029000000000000000000000000000000000000000F00292929000000000000002900000000000000000F00000000000000000000000000000000000000000029BE29000000000000000000000000000000000000000000000000000000000000000000000000000000000000000000000000000000000000
310
00000000000000000000000000000000000000000000000000000000000000000000000000000000000000000000000000000000000000000000000000000000000000000000000000000000000000000000000000000000000000000000000000000000000000000000000000000000000000000000000000000000000000
310
000000000000290000290000000000000000000000000000000000000F000029002900000000000000290000000000000000000F000000000000000000000000000000000000000029BE2900000000000000000000000000000000000000000000000000000000000000000000000000000000000000000000000000000000
310
00000000000000000000000000000000000000000000000000000000000000000000000000000000000000000000000000000000000000000000000000000000000000000000000000000000000000000000000000000000000000000000000000000000000000000000000000000000000000000000000000000000000000
310
00000000000000002900002900000000000000000000000000000000000F0000002900290000000000000029000000000000000000000F000000000000000000000000000000000000002900290000000000000000000000000000000000000000000000000000000000000000000000000000000000000000000000000000
310
00000000000000000000000000000000000000000000000000000000000000000000000000000000000000000000000000000000000000000000000000000000000000000000000000000000000000000000000000000000000000000000000000000000000000000000000000000000000000000000000000000000000000
310
0000000000000000000029000029292929292929292929292929292929290F29292929292929000000000000292929292929000000292929290F292929292929292929292929292929292929290029000000000000000000000000000000000000000000000000000000000000000000000000000000000000000000000000
310
00000000000000000000000000000000000000000000000000000000000000000000000000000000000000000000000000000000000000000000000000000000000000000000000000000000000000000000000000000000000000000000000000000000000000000000000000000000000000000000000000000000000000
310
000000000000000000000000290000292929292929292929292929292929290F292929292929292900000000000029292929292900000029292929290F292929292929292929292929292929292929002900000000000000000000000000000000000000000000000000000000000000000000000000000000000000000000
310
00000000000000000000000000000000000000000000000000000000000000000000000000000000000000000000000000000000000000000000000000000000000000000000000000000000000000000000000000000000000000000000000000000000000000000000000000000000000000000000000000000000000000
310
00000000000000000000000000002900002900000000000000000000000000000F0000000000000000000000000000000000000000000000000029000000000F000000000000000000000000000000002900290000000000000000000000000000000000000000000000000000000000000000000000000000000000000000
310
00000000000000000000000000000000000000000000000000000000000000000000000000000000000000000000000000000000000000000000000000000000000000000000000000000000000000000000000000000000000000000000000000000000000000000000000000000000000000000000000000000000000000
310
0000000000000000000000000000000029000029000000000000000000000000000F00000000000000000000000000000000000000000000000000002900000000000F00000000000000000000000000000029BE29000000000000000000000000000000000000000000000000000000000000000000000000000000000000
310
00000000000000000000000000000000000000000000000000000000000000000000000000000000000000000000000000000000000000000000000000000000000000000000000000000000000000000000000000000000000000000000000000000000000000000000000000000000000000000000000000000000000000
310
000000000000000000000000000000000000290000290000000000000000000000000F000000000000000000000000000000000000000000000000000000290000000000000F000000000000000000000000000029BE2900000000000000000000000000000000000000000000000000000000000000000000000000000000
310
00000000000000000000000000000000000000000000000000000000000000000000000000000000000000000000000000000000000000000000000000000000000000000000000000000000000000000000000000000000000000000000000000000000000000000000000000000000000000000000000000000000000000
310
00000000000000000000000000000000000000002900002900000000000000000000000F0000000000000000000000290000000000002929000000292929292929000000000000000F0F00000000000000000000000029BE290000000000000000000000000000000000000000000000000000000000000000000000000000
310
00000000000000000000000000000000000000000000000000000000000000000000000000000000000000000000000000000000000000000000000000000000000000000000000000000000000000000000000000000000000000000000000000000000000000000000000000000000000000000000000000000000000000
310
0000000000000000000000000000000000000000000029000029000000000000000000000F0000000000000000000000002900000000000029290000000000000029290000000000000000000F000000000000000000000029BE29000000000000000000000000000000000000000000000000000000000000000000000000
310
00000000000000000000000000000000000000000000000000000000000000000000000000000000000000000000000000000000000000000000000000000000000000000000000000000000000000000000000000000000000000000000000000000000000000000000000000000000000000000000000000000000000000
310
000000000000000000000000000000000000000000000000290000290000000000000000000F00000000000000000000000000290000000000002929000000000000002929000000000000000000000F0000000000000000000029BE2900000000000000000000000000000000000000000000000000000000000000000000
310
00000000000000000000000000000000000000000000000000000000000000000000000000000000000000000000000000000000000000000000000000000000000000000000000000000000000000000000000000000000000000000000000000000000000000000000000000000000000000000000000000000000000000
310
00000000000000000000000000000000000000000000000000002900002900000000000000000F000000000000000000000000000029000000000000292900000000000000292900000000000000000000000F00000000000000000029BE290000000000000000000000000000000000000000000000000000000000000000
310
00000000000000000000000000000000000000000000000000000000000000000000000000000000000000000000000000000000000000000000000000000000000000000000000000000000000000000000000000000000000000000000000000000000000000000000000000000000000000000000000000000000000000
310
0000000000000000000000000000000000000000000000000000000029000029000000000000000F0000000000000000000000000000002900000000000029290000000000000029290000000000000000000000000F000000000000000029BE29000000000000000000000000000000000000000000000000000000000000
310
00000000000000000000000000000000000000000000000000000000000000000000000000000000000000000000000000000000000000000000000000000000000000000000000000000000000000000000000000000000000000000000000000000000000000000000000000000000000000000000000000000000000000
310
000000000000000000000000000000000000000000000000000000000000290000290000000000000F00000000000000000000000000000000290000000000002929000000000000002929000000000000000000000000000F0000000000000029002900000000000000000000000000000000000000000000000000000000
310
00000000000000000000000000000000000000000000000000000000000000000000000000000000000000000000000000000000000000000000000000000000000000000000000000000000000000000000000000000000000000000000000000000000000000000000000000000000000000000000000000000000000000
310
00000000000000000000000000000000000000000000000000000000000000002900002900000000000F292929000000000000000000000000000029000000000000292900292900000000292900000000000000000000000000000F0000000000002900290000000000000000000000000000000000000000000000000000
310
00000000000000000000000000000000000000000000000000000000000000000000000000000000000000000000000000000000000000000000000000000000000000000000000000000000000000000000000000000000000000000000000000000000000000000000000000000000000000000000000000000000000000
310
0000000000000000000000000000000000000000000000000000000000000000000029000029000000000F0029290000000000000000000000000000002900000000000029290029290000000029290000000029290000000000000000000F0000000000290029000000000000000000000000000000000000000000000000
310
00000000000000000000000000000000000000000000000000000000000000000000000000000000000000000000000000000000000000000000000000000000000000000000000000000000000000000000000000000000000000000000000000000000000000000000000000000000000000000000000000000000000000
310
000000000000000000000000000000000000000000000000000000000000000000000000290000290000000F00000000000000000000000000000000000000290000000000002929000000000000002929000000002929000000000000000000000F0000000029002900000000000000000000000000000000000000000000
310
00000000000000000000000000000000000000000000000000000000000000000000000000000000000000000000000000000000000000000000000000000000000000000000000000000000000000000000000000000000000000000000000000000000000000000000000000000000000000000000000000000000000000
310
00000000000000000000000000000000000000000000000000000000000000000000000000002900002900000F000000000000000000000000000000000000000029000000000000292900000000000000292900000000000000000000000000000000000F0000002900290000000000000000000000000000000000000000
310
00000000000000000000000000000000000000000000000000000000000000000000000000000000000000000000000000000000000000000000000000000000000000000000000000000000000000000000000000000000000000000000000000000000000000000000000000000000000000000000000000000000000000
310
0000000000000000000000000000000000000000000000000000000000000000000000000000000029000029000F0000000000000000000000000000000000000000002900000000000029290000000000000029290000000000000000000000000000000000000F0000290029000000000000000000000000000000000000
310
00000000000000000000000000000000000000000000000000000000000000000000000000000000000000000000000000000000000000000000000000000000000000000000000000000000000000000000000000000000000000000000000000000000000000000000000000000000000000000000000000000000000000
310
000000000000000000000000000000000000000000000000000000000000000000000000000000000000290000290F00000000000000000000000000000000000000000000290000000000002929000000000000002929000000000000000000000000000000000000000F0029002900000000000000000000000000000000
310
00000000000000000000000000000000000000000000000000000000000000000000000000000000000000000000000000000000000000000000000000000000000000000000000000000000000000000000000000000000000000000000000000000000000000000000000000000000000000000000000000000000000000
310
00000000000000000000000000000000000000000000000000000000000000000000000000000000000000002900000F000000000000000000000000000000000000000000000029000000000000292900000000000000292900000000000000000000000000000000000000000F2900290000000000000000000000000000
310
00000000000000000000000000000000000000000000000000000000000000000000000000000000000000000000000000000000000000000000000000000000000000000000000000000000000000000000000000000000000000000000000000000000000000000000000000000000000000000000000000000000000000
310
0000000000000000000000000000000000000000000000000000000000000000000000000000000000000000000029000F2929292929292929292929292929292929292929292929292929292929292929292929BEBEBEBE2929292929292929292929292929292929292929292929290F0029000000000000000000000000
310
00000000000000000000000000000000000000000000000000000000000000000000000000000000000000000000000000000000000000000000000000000000000000000000000000000000000000000000000000000000000000000000000000000000000000000000000000000000000000000000000000000000000000
310
000000000000000000000000000000000000000000000000000000000000000000000000000000000000000000000000290F000000BEBEBEBEBEBEBE00000000000000000000000000000000BEBEBEBEBEBEBE000000BEBEBEBE000000000000000000000000000000000000000000000000000F2900000000000000000000
310
00000000000000000000000000000000000000000000000000000000000000000000000000000000000000000000000000000000000000000000000000000000000000000000000000000000000000000000000000000000000000000000000000000000000000000000000000000000000000000000000000000000000000
310
00000000000000000000000000000000000000000000000000000000000000000000000000000000000000000000000000000F29292929BEBEBEBEBEBEBE29292929292929292929292929292929BEBEBEBEBEBEBE292929BEBEBEBE29292929292929292929292929292929292929292929292929290F0000000000000000
310
00000000000000000000000000000000000000000000000000000000000000000000000000000000000000000000000000000000000000000000000000000000000000000000000000000000000000000000000000000000000000000000000000000000000000000000000000000000000000000000000000000000000000
310
00000000000000000000000000000000000000000000000000000000000000000000000000000000000000000000000000000000000000000000000000000000000000000000000000000000000000000000000000000000000000000000000000000000000000000000000000000000000000000000000000000000000000
310
00000000000000000000000000000000000000000000000000000000000000000000000000000000000000000000000000000000000000000000000000000000000000000000000000000000000000000000000000000000000000000000000000000000000000000000000000000000000000000000000000000000000000
310
00000000000000000000000000000000000000000000000000000000000000000000000000000000000000000000000000000000000000000000000000000000000000000000000000000000000000000000000000000000000000000000000000000000000000000000000000000000000000000000000000000000000000
310
00000000000000000000000000000000000000000000000000000000000000000000000000000000000000000000000000000000000000000000000000000000000000000000000000000000000000000000000000000000000000000000000000000000000000000000000000000000000000000000000000000000000000
310
00000000000000000000000000000000000000000000000000000000000000000000000000000000000000000000000000000000000000000000000000000000000000000000000000000000000000000000000000000000000000000000000000000000000000000000000000000000000000000000000000000000000000
310
00000000000000000000000000000000000000000000000000000000000000000000000000000000000000000000000000000000000000000000000000000000000000000000000000000000000000000000000000000000000000000000000000000000000000000000000000000000000000000000000000000000000000
310
00000000000000000000000000000000000000000000000000000000000000000000000000000000000000000000000000000000000000000000000000000000000000000000000000000000000000000000000000000000000000000000000000000000000000000000000000000000000000000000000000000000000000
310
00000000000000000000000000000000000000000000000000000000000000000000000000000000000000000000000000000000000000000000000000000000000000000000000000000000000000000000000000000000000000000000000000000000000000000000000000000000000000000000000000000000000000
310
00000000000000000000000000000000000000000000000000000000000000000000000000000000000000000000000000000000000000000000000000000000000000000000000000000000000000000000000000000000000000000000000000000000000000000000000000000000000000000000000000000000000000
310
00000000000000000000000000000000000000000000000000000000000000000000000000000000000000000000000000000000000000000000000000000000000000000000000000000000000000000000000000000000000000000000000000000000000000000000000000000000000000000000000000000000000000
310
00000000000000000000000000000000000000000000000000000000000000000000000000000000000000000000000000000000000000000000000000000000000000000000000000000000000000000000000000000000000000000000000000000000000000000000000000000000000000000000000000000000000000
310
00000000000000000000000000000000000000000000000000000000000000000000000000000000000000000000000000000000000000000000000000000000000000000000000000000000000000000000000000000000000000000000000000000000000000000000000000000000000000000000000000000000000000
310
00000000000000000000000000000000000000000000000000000000000000000000000000000000000000000000000000000000000000000000000000000000000000000000000000000000000000000000000000000000000000000000000000000000000000000000000000000000000000000000000000000000000000
310
00000000000000000000000000000000000000000000000000000000000000000000000000000000000000000000000000000000000000000000000000000000000000000000000000000000000000000000000000000000000000000000000000000000000000000000000000000000000000000000000000000000000000
310
00000000000000000000000000000000000000000000000000000000000000000000000000000000000000000000000000000000000000000000000000000000000000000000000000000000000000000000000000000000000000000000000000000000000000000000000000000000000000000000000000000000000000
310
00000000000000000000000000000000000000000000000000000000000000000000000000000000000000000000000000000000000000000000000000000000000000000000000000000000000000000000000000000000000000000000000000000000000000000000000000000000000000000000000000000000000000
310
00000000000000000000000000000000000000000000000000000000000000000000000000000000000000000000000000000000000000000000000000000000000000000000000000000000000000000000000000000000000000000000000000000000000000000000000000000000000000000000000000000000000000
310
00000000000000000000000000000000000000000000000000000000000000000000000000000000000000000000000000000000000000000000000000000000000000000000000000000000000000000000000000000000000000000000000000000000000000000000000000000000000000000000000000000000000000
310
00000000000000000000000000000000000000000000000000000000000000000000000000000000000000000000000000000000000000000000000000000000000000000000000000000000000000000000000000000000000000000000000000000000000000000000000000000000000000000000000000000000000000
310
00000000000000000000000000000000000000000000000000000000000000000000000000000000000000000000000000000000000000000000000000000000000000000000000000000000000000000000000000000000000000000000000000000000000000000000000000000000000000000000000000000000000000
310
00000000000000000000000000000000000000000000000000000000000000000000000000000000000000000000000000000000000000000000000000000000000000000000000000000000000000000000000000000000000000000000000000000000000000000000000000000000000000000000000000000000000000
310
00000000000000000000000000000000000000000000000000000000000000000000000000000000000000000000000000000000000000000000000000000000000000000000000000000000000000000000000000000000000000000000000000000000000000000000000000000000000000000000000000000000000000
310
00000000000000000000000000000000000000000000000000000000000000000000000000000000000000000000000000000000000000000000000000000000000000000000000000000000000000000000000000000000000000000000000000000000000000000000000000000000000000000000000000000000000000
310
00000000000000000000000000000000000000000000000000000000000000000000000000000000000000000000000000000000000000000000000000000000000000000000000000000000000000000000000000000000000000000000000000000000000000000000000000000000000000000000000000000000000000
310
00000000000000000000000000000000000000000000000000000000000000000000000000000000000000000000000000000000000000000000000000000000000000000000000000000000000000000000000000000000000000000000000000000000000000000000000000000000000000000000000000000000000000
310
00000000000000000000000000000000000000000000000000000000000000000000000000000000000000000000000000000000000000000000000000000000000000000000000000000000000000000000000000000000000000000000000000000000000000000000000000000000000000000000000000000000000000
310
00000000000000000000000000000000000000000000000000000000000000000000000000000000000000000000000000000000000000000000000000000000000000000000000000000000000000000000000000000000000000000000000000000000000000000000000000000000000000000000000000000000000000
310
00000000000000000000000000000000000000000000000000000000000000000000000000000000000000000000000000000000000000000000000000000000000000000000000000000000000000000000000000000000000000000000000000000000000000000000000000000000000000000000000000000000000000
310
00000000000000000000000000000000000000000000000000000000000000000000000000000000000000000000000000000000000000000000000000000000000000000000000000000000000000000000000000000000000000000000000000000000000000000000000000000000000000000000000000000000000000
310
000000000000000000000000000000000000000000000000000000000000000000000000000000000000000000000000000000000000000000000000000000000000000000000000000000000000000000000000000000000000000000000000000000000000000000000000000000
  0
XRECORD
  5
C28
102
{ACAD_REACTORS
330
C27
102
}
330
C27
100
AcDbXrecord
280
     1
102
DISPLAYNAME
  1
Metric50
102
FLAGS
 90
        0
  0
CELLSTYLEMAP
  5
BE9
102
{ACAD_REACTORS
330
9A1
102
}
330
9A1
100
AcDbCellStyleMap
 90
        3
300
CELLSTYLE
  1
TABLEFORMAT_BEGIN
 90
        5
170
     1
 91
        0
 92
        0
 62
   257
 93
        1
300
CONTENTFORMAT
  1
CONTENTFORMAT_BEGIN
 90
        0
 91
        0
 92
        4
 93
        0
300

 40
0.0
140
1.0
 94
        5
 62
     0
340
74
144
0.18
309
CONTENTFORMAT_END
171
     0
 94
        6
 95
        1
302
GRIDFORMAT
  1
GRIDFORMAT_BEGIN
 90
        0
 91
        1
 62
     0
 92
       -2
340
76
 93
        0
 40
0.045
309
GRIDFORMAT_END
 95
        2
302
GRIDFORMAT
  1
GRIDFORMAT_BEGIN
 90
        0
 91
        1
 62
     0
 92
       -2
340
76
 93
        0
 40
0.045
309
GRIDFORMAT_END
 95
        4
302
GRIDFORMAT
  1
GRIDFORMAT_BEGIN
 90
        0
 91
        1
 62
     0
 92
       -2
340
76
 93
        0
 40
0.045
309
GRIDFORMAT_END
 95
        8
302
GRIDFORMAT
  1
GRIDFORMAT_BEGIN
 90
        0
 91
        1
 62
     0
 92
       -2
340
76
 93
        0
 40
0.045
309
GRIDFORMAT_END
 95
       16
302
GRIDFORMAT
  1
GRIDFORMAT_BEGIN
 90
        0
 91
        1
 62
     0
 92
       -2
340
76
 93
        0
 40
0.045
309
GRIDFORMAT_END
 95
       32
302
GRIDFORMAT
  1
GRIDFORMAT_BEGIN
 90
        0
 91
        1
 62
     0
 92
       -2
340
76
 93
        0
 40
0.045
309
GRIDFORMAT_END
309
TABLEFORMAT_END
  1
CELLSTYLE_BEGIN
 90
        1
 91
        1
300
_TITLE
309
CELLSTYLE_END
300
CELLSTYLE
  1
TABLEFORMAT_BEGIN
 90
        5
170
     1
 91
        0
 92
        0
 62
   257
 93
        1
300
CONTENTFORMAT
  1
CONTENTFORMAT_BEGIN
 90
        0
 91
        0
 92
        4
 93
        0
300

 40
0.0
140
1.0
 94
        2
 62
     0
340
74
144
0.18
309
CONTENTFORMAT_END
171
     0
 94
        6
 95
        1
302
GRIDFORMAT
  1
GRIDFORMAT_BEGIN
 90
        0
 91
        1
 62
     0
 92
       -2
340
76
 93
        0
 40
0.045
309
GRIDFORMAT_END
 95
        2
302
GRIDFORMAT
  1
GRIDFORMAT_BEGIN
 90
        0
 91
        1
 62
     0
 92
       -2
340
76
 93
        0
 40
0.045
309
GRIDFORMAT_END
 95
        4
302
GRIDFORMAT
  1
GRIDFORMAT_BEGIN
 90
        0
 91
        1
 62
     0
 92
       -2
340
76
 93
        0
 40
0.045
309
GRIDFORMAT_END
 95
        8
302
GRIDFORMAT
  1
GRIDFORMAT_BEGIN
 90
        0
 91
        1
 62
     0
 92
       -2
340
76
 93
        0
 40
0.045
309
GRIDFORMAT_END
 95
       16
302
GRIDFORMAT
  1
GRIDFORMAT_BEGIN
 90
        0
 91
        1
 62
     0
 92
       -2
340
76
 93
        0
 40
0.045
309
GRIDFORMAT_END
 95
       32
302
GRIDFORMAT
  1
GRIDFORMAT_BEGIN
 90
        0
 91
        1
 62
     0
 92
       -2
340
76
 93
        0
 40
0.045
309
GRIDFORMAT_END
309
TABLEFORMAT_END
  1
CELLSTYLE_BEGIN
 90
        2
 91
        1
300
_HEADER
309
CELLSTYLE_END
300
CELLSTYLE
  1
TABLEFORMAT_BEGIN
 90
        5
170
     1
 91
        0
 92
        0
 62
   257
 93
        1
300
CONTENTFORMAT
  1
CONTENTFORMAT_BEGIN
 90
        0
 91
        0
 92
        4
 93
        0
300

 40
0.0
140
1.0
 94
        5
 62
     0
340
74
144
0.25
309
CONTENTFORMAT_END
171
     0
 94
        6
 95
        1
302
GRIDFORMAT
  1
GRIDFORMAT_BEGIN
 90
        0
 91
        1
 62
     0
 92
       -2
340
76
 93
        0
 40
0.045
309
GRIDFORMAT_END
 95
        2
302
GRIDFORMAT
  1
GRIDFORMAT_BEGIN
 90
        0
 91
        1
 62
     0
 92
       -2
340
76
 93
        0
 40
0.045
309
GRIDFORMAT_END
 95
        4
302
GRIDFORMAT
  1
GRIDFORMAT_BEGIN
 90
        0
 91
        1
 62
     0
 92
       -2
340
76
 93
        0
 40
0.045
309
GRIDFORMAT_END
 95
        8
302
GRIDFORMAT
  1
GRIDFORMAT_BEGIN
 90
        0
 91
        1
 62
     0
 92
       -2
340
76
 93
        0
 40
0.045
309
GRIDFORMAT_END
 95
       16
302
GRIDFORMAT
  1
GRIDFORMAT_BEGIN
 90
        0
 91
        1
 62
     0
 92
       -2
340
76
 93
        0
 40
0.045
309
GRIDFORMAT_END
 95
       32
302
GRIDFORMAT
  1
GRIDFORMAT_BEGIN
 90
        0
 91
        1
 62
     0
 92
       -2
340
76
 93
        0
 40
0.045
309
GRIDFORMAT_END
309
TABLEFORMAT_END
  1
CELLSTYLE_BEGIN
 90
        3
 91
        2
300
_DATA
309
CELLSTYLE_END
  0
XRECORD
  5
BFC
102
{ACAD_REACTORS
330
BFB
102
}
330
BFB
100
AcDbXrecord
280
     1
102
RTVSPost2010Prop28
280
     1
102
RTVSPost2010PropOp28
 70
     1
102
RTVSPost2010Prop29
280
     1
102
RTVSPost2010PropOp29
 70
     1
102
RTVSPost2010Prop30
280
     0
102
RTVSPost2010PropOp30
 70
     1
102
RTVSPost2010Prop31
280
     0
102
RTVSPost2010PropOp31
 70
     1
102
RTVSPost2010Prop32
280
     0
102
RTVSPost2010PropOp32
 70
     1
102
RTVSPost2010Prop33
280
     0
102
RTVSPost2010PropOp33
 70
     1
102
RTVSPost2010Prop34
280
     0
102
RTVSPost2010PropOp34
 70
     1
102
RTVSPost2010Prop35
280
     0
102
RTVSPost2010PropOp35
 70
     1
102
RTVSPost2010Prop36
280
     0
102
RTVSPost2010PropOp36
 70
     1
102
RTVSPost2010Prop37
 90
       50
102
RTVSPost2010PropOp37
 70
     1
102
RTVSPost2010Prop38
140
0.0
102
RTVSPost2010PropOp38
 70
     1
102
RTVSPost2010Prop39
140
1.0
102
RTVSPost2010PropOp39
 70
     1
102
RTVSPost2010Prop40
 90
        0
102
RTVSPost2010PropOp40
 70
     1
102
RTVSPost2010Prop41ColorIndex
 90
       18
102
RTVSPost2010Prop41ColorRGB
 90
        0
102
RTVSPost2010PropOp41
 70
     1
102
RTVSPost2010Prop42
 90
       50
102
RTVSPost2010PropOp42
 70
     1
102
RTVSPost2010Prop43
 90
        3
102
RTVSPost2010PropOp43
 70
     1
102
RTVSPost2010Prop44ColorIndex
 90
        5
102
RTVSPost2010Prop44ColorRGB
 90
      255
102
RTVSPost2010PropOp44
 70
     1
102
RTVSPost2010Prop45
280
     0
102
RTVSPost2010PropOp45
 70
     1
102
RTVSPost2010Prop46
 90
       50
102
RTVSPost2010PropOp46
 70
     1
102
RTVSPost2010Prop47
 90
       50
102
RTVSPost2010PropOp47
 70
     1
102
RTVSPost2010Prop48
 90
       50
102
RTVSPost2010PropOp48
 70
     1
102
RTVSPost2010Prop49
280
     0
102
RTVSPost2010PropOp49
 70
     1
102
RTVSPost2010Prop50
 90
       50
102
RTVSPost2010PropOp50
 70
     1
102
RTVSPost2010Prop51ColorIndex
 90
      256
102
RTVSPost2010Prop51ColorRGB
 90
-16777216
102
RTVSPost2010PropOp51
 70
     0
102
RTVSPost2010Prop52
140
1.0
102
RTVSPost2010PropOp52
 70
     0
102
RTVSPost2010Prop53
 90
        2
102
RTVSPost2010PropOp53
 70
     1
102
RTVSPost2010Prop54
  1
strokes_ogs.tif
102
RTVSPost2010PropOp54
 70
     1
102
RTVSPost2010Prop55
280
     0
102
RTVSPost2010PropOp55
 70
     1
102
RTVSPost2010Prop56
140
1.0
102
RTVSPost2010PropOp56
 70
     1
102
RTVSPost2010Prop57
140
1.0
102
RTVSPost2010PropOp57
 70
     1
  0
XRECORD
  5
C00
102
{ACAD_REACTORS
330
BFF
102
}
330
BFF
100
AcDbXrecord
280
     1
102
RTVSPost2010Prop28
280
     0
102
RTVSPost2010PropOp28
 70
     1
102
RTVSPost2010Prop29
280
     1
102
RTVSPost2010PropOp29
 70
     1
102
RTVSPost2010Prop30
280
     1
102
RTVSPost2010PropOp30
 70
     1
102
RTVSPost2010Prop31
280
     0
102
RTVSPost2010PropOp31
 70
     1
102
RTVSPost2010Prop32
280
     0
102
RTVSPost2010PropOp32
 70
     1
102
RTVSPost2010Prop33
280
     0
102
RTVSPost2010PropOp33
 70
     1
102
RTVSPost2010Prop34
280
     0
102
RTVSPost2010PropOp34
 70
     1
102
RTVSPost2010Prop35
280
     0
102
RTVSPost2010PropOp35
 70
     1
102
RTVSPost2010Prop36
280
     0
102
RTVSPost2010PropOp36
 70
     1
102
RTVSPost2010Prop37
 90
       50
102
RTVSPost2010PropOp37
 70
     1
102
RTVSPost2010Prop38
140
0.0
102
RTVSPost2010PropOp38
 70
     1
102
RTVSPost2010Prop39
140
1.0
102
RTVSPost2010PropOp39
 70
     1
102
RTVSPost2010Prop40
 90
        0
102
RTVSPost2010PropOp40
 70
     1
102
RTVSPost2010Prop41ColorIndex
 90
       18
102
RTVSPost2010Prop41ColorRGB
 90
        0
102
RTVSPost2010PropOp41
 70
     1
102
RTVSPost2010Prop42
 90
       50
102
RTVSPost2010PropOp42
 70
     1
102
RTVSPost2010Prop43
 90
        3
102
RTVSPost2010PropOp43
 70
     1
102
RTVSPost2010Prop44ColorIndex
 90
        5
102
RTVSPost2010Prop44ColorRGB
 90
      255
102
RTVSPost2010PropOp44
 70
     1
102
RTVSPost2010Prop45
280
     0
102
RTVSPost2010PropOp45
 70
     1
102
RTVSPost2010Prop46
 90
       50
102
RTVSPost2010PropOp46
 70
     1
102
RTVSPost2010Prop47
 90
       50
102
RTVSPost2010PropOp47
 70
     1
102
RTVSPost2010Prop48
 90
       50
102
RTVSPost2010PropOp48
 70
     1
102
RTVSPost2010Prop49
280
     0
102
RTVSPost2010PropOp49
 70
     1
102
RTVSPost2010Prop50
 90
       50
102
RTVSPost2010PropOp50
 70
     1
102
RTVSPost2010Prop51ColorIndex
 90
      256
102
RTVSPost2010Prop51ColorRGB
 90
-16777216
102
RTVSPost2010PropOp51
 70
     0
102
RTVSPost2010Prop52
140
1.0
102
RTVSPost2010PropOp52
 70
     0
102
RTVSPost2010Prop53
 90
        2
102
RTVSPost2010PropOp53
 70
     1
102
RTVSPost2010Prop54
  1
strokes_ogs.tif
102
RTVSPost2010PropOp54
 70
     1
102
RTVSPost2010Prop55
280
     0
102
RTVSPost2010PropOp55
 70
     1
102
RTVSPost2010Prop56
140
1.0
102
RTVSPost2010PropOp56
 70
     1
102
RTVSPost2010Prop57
140
1.0
102
RTVSPost2010PropOp57
 70
     1
  0
XRECORD
  5
BFE
102
{ACAD_REACTORS
330
BFD
102
}
330
BFD
100
AcDbXrecord
280
     1
102
RTVSPost2010Prop28
280
     0
102
RTVSPost2010PropOp28
 70
     1
102
RTVSPost2010Prop29
280
     1
102
RTVSPost2010PropOp29
 70
     1
102
RTVSPost2010Prop30
280
     1
102
RTVSPost2010PropOp30
 70
     1
102
RTVSPost2010Prop31
280
     0
102
RTVSPost2010PropOp31
 70
     1
102
RTVSPost2010Prop32
280
     0
102
RTVSPost2010PropOp32
 70
     1
102
RTVSPost2010Prop33
280
     0
102
RTVSPost2010PropOp33
 70
     1
102
RTVSPost2010Prop34
280
     0
102
RTVSPost2010PropOp34
 70
     1
102
RTVSPost2010Prop35
280
     0
102
RTVSPost2010PropOp35
 70
     1
102
RTVSPost2010Prop36
280
     0
102
RTVSPost2010PropOp36
 70
     1
102
RTVSPost2010Prop37
 90
       50
102
RTVSPost2010PropOp37
 70
     1
102
RTVSPost2010Prop38
140
0.0
102
RTVSPost2010PropOp38
 70
     1
102
RTVSPost2010Prop39
140
1.0
102
RTVSPost2010PropOp39
 70
     1
102
RTVSPost2010Prop40
 90
        0
102
RTVSPost2010PropOp40
 70
     1
102
RTVSPost2010Prop41ColorIndex
 90
       18
102
RTVSPost2010Prop41ColorRGB
 90
        0
102
RTVSPost2010PropOp41
 70
     1
102
RTVSPost2010Prop42
 90
       50
102
RTVSPost2010PropOp42
 70
     1
102
RTVSPost2010Prop43
 90
        3
102
RTVSPost2010PropOp43
 70
     1
102
RTVSPost2010Prop44ColorIndex
 90
        5
102
RTVSPost2010Prop44ColorRGB
 90
      255
102
RTVSPost2010PropOp44
 70
     1
102
RTVSPost2010Prop45
280
     0
102
RTVSPost2010PropOp45
 70
     1
102
RTVSPost2010Prop46
 90
       50
102
RTVSPost2010PropOp46
 70
     1
102
RTVSPost2010Prop47
 90
       50
102
RTVSPost2010PropOp47
 70
     1
102
RTVSPost2010Prop48
 90
       50
102
RTVSPost2010PropOp48
 70
     1
102
RTVSPost2010Prop49
280
     0
102
RTVSPost2010PropOp49
 70
     1
102
RTVSPost2010Prop50
 90
       50
102
RTVSPost2010PropOp50
 70
     1
102
RTVSPost2010Prop51ColorIndex
 90
      256
102
RTVSPost2010Prop51ColorRGB
 90
-16777216
102
RTVSPost2010PropOp51
 70
     0
102
RTVSPost2010Prop52
140
1.0
102
RTVSPost2010PropOp52
 70
     0
102
RTVSPost2010Prop53
 90
        2
102
RTVSPost2010PropOp53
 70
     1
102
RTVSPost2010Prop54
  1
strokes_ogs.tif
102
RTVSPost2010PropOp54
 70
     1
102
RTVSPost2010Prop55
280
     0
102
RTVSPost2010PropOp55
 70
     1
102
RTVSPost2010Prop56
140
1.0
102
RTVSPost2010PropOp56
 70
     1
102
RTVSPost2010Prop57
140
1.0
102
RTVSPost2010PropOp57
 70
     1
  0
XRECORD
  5
C02
102
{ACAD_REACTORS
330
C01
102
}
330
C01
100
AcDbXrecord
280
     1
102
RTVSPost2010Prop28
280
     0
102
RTVSPost2010PropOp28
 70
     1
102
RTVSPost2010Prop29
280
     1
102
RTVSPost2010PropOp29
 70
     1
102
RTVSPost2010Prop30
280
     1
102
RTVSPost2010PropOp30
 70
     1
102
RTVSPost2010Prop31
280
     0
102
RTVSPost2010PropOp31
 70
     1
102
RTVSPost2010Prop32
280
     0
102
RTVSPost2010PropOp32
 70
     1
102
RTVSPost2010Prop33
280
     0
102
RTVSPost2010PropOp33
 70
     1
102
RTVSPost2010Prop34
280
     0
102
RTVSPost2010PropOp34
 70
     1
102
RTVSPost2010Prop35
280
     0
102
RTVSPost2010PropOp35
 70
     1
102
RTVSPost2010Prop36
280
     0
102
RTVSPost2010PropOp36
 70
     1
102
RTVSPost2010Prop37
 90
       50
102
RTVSPost2010PropOp37
 70
     1
102
RTVSPost2010Prop38
140
0.0
102
RTVSPost2010PropOp38
 70
     1
102
RTVSPost2010Prop39
140
1.0
102
RTVSPost2010PropOp39
 70
     1
102
RTVSPost2010Prop40
 90
        0
102
RTVSPost2010PropOp40
 70
     1
102
RTVSPost2010Prop41ColorIndex
 90
       18
102
RTVSPost2010Prop41ColorRGB
 90
        0
102
RTVSPost2010PropOp41
 70
     1
102
RTVSPost2010Prop42
 90
       50
102
RTVSPost2010PropOp42
 70
     1
102
RTVSPost2010Prop43
 90
        3
102
RTVSPost2010PropOp43
 70
     1
102
RTVSPost2010Prop44ColorIndex
 90
        5
102
RTVSPost2010Prop44ColorRGB
 90
      255
102
RTVSPost2010PropOp44
 70
     1
102
RTVSPost2010Prop45
280
     0
102
RTVSPost2010PropOp45
 70
     1
102
RTVSPost2010Prop46
 90
       50
102
RTVSPost2010PropOp46
 70
     1
102
RTVSPost2010Prop47
 90
       50
102
RTVSPost2010PropOp47
 70
     1
102
RTVSPost2010Prop48
 90
       50
102
RTVSPost2010PropOp48
 70
     1
102
RTVSPost2010Prop49
280
     0
102
RTVSPost2010PropOp49
 70
     1
102
RTVSPost2010Prop50
 90
       50
102
RTVSPost2010PropOp50
 70
     1
102
RTVSPost2010Prop51ColorIndex
 90
      256
102
RTVSPost2010Prop51ColorRGB
 90
-16777216
102
RTVSPost2010PropOp51
 70
     0
102
RTVSPost2010Prop52
140
1.0
102
RTVSPost2010PropOp52
 70
     0
102
RTVSPost2010Prop53
 90
        2
102
RTVSPost2010PropOp53
 70
     1
102
RTVSPost2010Prop54
  1
strokes_ogs.tif
102
RTVSPost2010PropOp54
 70
     1
102
RTVSPost2010Prop55
280
     0
102
RTVSPost2010PropOp55
 70
     1
102
RTVSPost2010Prop56
140
1.0
102
RTVSPost2010PropOp56
 70
     1
102
RTVSPost2010Prop57
140
1.0
102
RTVSPost2010PropOp57
 70
     1
  0
XRECORD
  5
C0A
102
{ACAD_REACTORS
330
C09
102
}
330
C09
100
AcDbXrecord
280
     1
102
RTVSPost2010Prop28
280
     0
102
RTVSPost2010PropOp28
 70
     1
102
RTVSPost2010Prop29
280
     1
102
RTVSPost2010PropOp29
 70
     1
102
RTVSPost2010Prop30
280
     1
102
RTVSPost2010PropOp30
 70
     1
102
RTVSPost2010Prop31
280
     0
102
RTVSPost2010PropOp31
 70
     1
102
RTVSPost2010Prop32
280
     0
102
RTVSPost2010PropOp32
 70
     1
102
RTVSPost2010Prop33
280
     0
102
RTVSPost2010PropOp33
 70
     1
102
RTVSPost2010Prop34
280
     0
102
RTVSPost2010PropOp34
 70
     1
102
RTVSPost2010Prop35
280
     0
102
RTVSPost2010PropOp35
 70
     1
102
RTVSPost2010Prop36
280
     0
102
RTVSPost2010PropOp36
 70
     1
102
RTVSPost2010Prop37
 90
       50
102
RTVSPost2010PropOp37
 70
     1
102
RTVSPost2010Prop38
140
0.0
102
RTVSPost2010PropOp38
 70
     1
102
RTVSPost2010Prop39
140
1.0
102
RTVSPost2010PropOp39
 70
     1
102
RTVSPost2010Prop40
 90
        0
102
RTVSPost2010PropOp40
 70
     1
102
RTVSPost2010Prop41ColorIndex
 90
       18
102
RTVSPost2010Prop41ColorRGB
 90
        0
102
RTVSPost2010PropOp41
 70
     1
102
RTVSPost2010Prop42
 90
       50
102
RTVSPost2010PropOp42
 70
     1
102
RTVSPost2010Prop43
 90
        3
102
RTVSPost2010PropOp43
 70
     1
102
RTVSPost2010Prop44ColorIndex
 90
        5
102
RTVSPost2010Prop44ColorRGB
 90
      255
102
RTVSPost2010PropOp44
 70
     1
102
RTVSPost2010Prop45
280
     0
102
RTVSPost2010PropOp45
 70
     1
102
RTVSPost2010Prop46
 90
       50
102
RTVSPost2010PropOp46
 70
     1
102
RTVSPost2010Prop47
 90
       50
102
RTVSPost2010PropOp47
 70
     1
102
RTVSPost2010Prop48
 90
       50
102
RTVSPost2010PropOp48
 70
     1
102
RTVSPost2010Prop49
280
     0
102
RTVSPost2010PropOp49
 70
     1
102
RTVSPost2010Prop50
 90
       50
102
RTVSPost2010PropOp50
 70
     1
102
RTVSPost2010Prop51ColorIndex
 90
      256
102
RTVSPost2010Prop51ColorRGB
 90
-16777216
102
RTVSPost2010PropOp51
 70
     0
102
RTVSPost2010Prop52
140
1.0
102
RTVSPost2010PropOp52
 70
     0
102
RTVSPost2010Prop53
 90
        2
102
RTVSPost2010PropOp53
 70
     1
102
RTVSPost2010Prop54
  1
strokes_ogs.tif
102
RTVSPost2010PropOp54
 70
     1
102
RTVSPost2010Prop55
280
     0
102
RTVSPost2010PropOp55
 70
     1
102
RTVSPost2010Prop56
140
1.0
102
RTVSPost2010PropOp56
 70
     1
102
RTVSPost2010Prop57
140
1.0
102
RTVSPost2010PropOp57
 70
     1
  0
XRECORD
  5
C12
102
{ACAD_REACTORS
330
C11
102
}
330
C11
100
AcDbXrecord
280
     1
102
RTVSPost2010Prop28
280
     0
102
RTVSPost2010PropOp28
 70
     1
102
RTVSPost2010Prop29
280
     1
102
RTVSPost2010PropOp29
 70
     1
102
RTVSPost2010Prop30
280
     1
102
RTVSPost2010PropOp30
 70
     1
102
RTVSPost2010Prop31
280
     0
102
RTVSPost2010PropOp31
 70
     1
102
RTVSPost2010Prop32
280
     0
102
RTVSPost2010PropOp32
 70
     1
102
RTVSPost2010Prop33
280
     0
102
RTVSPost2010PropOp33
 70
     1
102
RTVSPost2010Prop34
280
     0
102
RTVSPost2010PropOp34
 70
     1
102
RTVSPost2010Prop35
280
     0
102
RTVSPost2010PropOp35
 70
     1
102
RTVSPost2010Prop36
280
     0
102
RTVSPost2010PropOp36
 70
     1
102
RTVSPost2010Prop37
 90
       50
102
RTVSPost2010PropOp37
 70
     1
102
RTVSPost2010Prop38
140
0.0
102
RTVSPost2010PropOp38
 70
     1
102
RTVSPost2010Prop39
140
1.0
102
RTVSPost2010PropOp39
 70
     1
102
RTVSPost2010Prop40
 90
        0
102
RTVSPost2010PropOp40
 70
     1
102
RTVSPost2010Prop41ColorIndex
 90
       18
102
RTVSPost2010Prop41ColorRGB
 90
        0
102
RTVSPost2010PropOp41
 70
     1
102
RTVSPost2010Prop42
 90
       50
102
RTVSPost2010PropOp42
 70
     1
102
RTVSPost2010Prop43
 90
        3
102
RTVSPost2010PropOp43
 70
     1
102
RTVSPost2010Prop44ColorIndex
 90
        5
102
RTVSPost2010Prop44ColorRGB
 90
      255
102
RTVSPost2010PropOp44
 70
     1
102
RTVSPost2010Prop45
280
     0
102
RTVSPost2010PropOp45
 70
     1
102
RTVSPost2010Prop46
 90
       50
102
RTVSPost2010PropOp46
 70
     1
102
RTVSPost2010Prop47
 90
       50
102
RTVSPost2010PropOp47
 70
     1
102
RTVSPost2010Prop48
 90
       50
102
RTVSPost2010PropOp48
 70
     1
102
RTVSPost2010Prop49
280
     0
102
RTVSPost2010PropOp49
 70
     1
102
RTVSPost2010Prop50
 90
       50
102
RTVSPost2010PropOp50
 70
     1
102
RTVSPost2010Prop51ColorIndex
 90
      256
102
RTVSPost2010Prop51ColorRGB
 90
-16777216
102
RTVSPost2010PropOp51
 70
     0
102
RTVSPost2010Prop52
140
1.0
102
RTVSPost2010PropOp52
 70
     0
102
RTVSPost2010Prop53
 90
        2
102
RTVSPost2010PropOp53
 70
     1
102
RTVSPost2010Prop54
  1
strokes_ogs.tif
102
RTVSPost2010PropOp54
 70
     1
102
RTVSPost2010Prop55
280
     0
102
RTVSPost2010PropOp55
 70
     1
102
RTVSPost2010Prop56
140
1.0
102
RTVSPost2010PropOp56
 70
     1
102
RTVSPost2010Prop57
140
1.0
102
RTVSPost2010PropOp57
 70
     1
  0
XRECORD
  5
C06
102
{ACAD_REACTORS
330
C05
102
}
330
C05
100
AcDbXrecord
280
     1
102
RTVSPost2010Prop28
280
     0
102
RTVSPost2010PropOp28
 70
     1
102
RTVSPost2010Prop29
280
     1
102
RTVSPost2010PropOp29
 70
     1
102
RTVSPost2010Prop30
280
     1
102
RTVSPost2010PropOp30
 70
     1
102
RTVSPost2010Prop31
280
     0
102
RTVSPost2010PropOp31
 70
     1
102
RTVSPost2010Prop32
280
     0
102
RTVSPost2010PropOp32
 70
     1
102
RTVSPost2010Prop33
280
     0
102
RTVSPost2010PropOp33
 70
     1
102
RTVSPost2010Prop34
280
     0
102
RTVSPost2010PropOp34
 70
     1
102
RTVSPost2010Prop35
280
     0
102
RTVSPost2010PropOp35
 70
     1
102
RTVSPost2010Prop36
280
     0
102
RTVSPost2010PropOp36
 70
     1
102
RTVSPost2010Prop37
 90
       50
102
RTVSPost2010PropOp37
 70
     1
102
RTVSPost2010Prop38
140
0.0
102
RTVSPost2010PropOp38
 70
     1
102
RTVSPost2010Prop39
140
1.0
102
RTVSPost2010PropOp39
 70
     1
102
RTVSPost2010Prop40
 90
        0
102
RTVSPost2010PropOp40
 70
     1
102
RTVSPost2010Prop41ColorIndex
 90
       18
102
RTVSPost2010Prop41ColorRGB
 90
        0
102
RTVSPost2010PropOp41
 70
     1
102
RTVSPost2010Prop42
 90
       50
102
RTVSPost2010PropOp42
 70
     1
102
RTVSPost2010Prop43
 90
        3
102
RTVSPost2010PropOp43
 70
     1
102
RTVSPost2010Prop44ColorIndex
 90
        5
102
RTVSPost2010Prop44ColorRGB
 90
      255
102
RTVSPost2010PropOp44
 70
     1
102
RTVSPost2010Prop45
280
     0
102
RTVSPost2010PropOp45
 70
     1
102
RTVSPost2010Prop46
 90
       50
102
RTVSPost2010PropOp46
 70
     1
102
RTVSPost2010Prop47
 90
       50
102
RTVSPost2010PropOp47
 70
     1
102
RTVSPost2010Prop48
 90
       50
102
RTVSPost2010PropOp48
 70
     1
102
RTVSPost2010Prop49
280
     0
102
RTVSPost2010PropOp49
 70
     1
102
RTVSPost2010Prop50
 90
       50
102
RTVSPost2010PropOp50
 70
     1
102
RTVSPost2010Prop51ColorIndex
 90
      256
102
RTVSPost2010Prop51ColorRGB
 90
-16777216
102
RTVSPost2010PropOp51
 70
     0
102
RTVSPost2010Prop52
140
1.0
102
RTVSPost2010PropOp52
 70
     0
102
RTVSPost2010Prop53
 90
        2
102
RTVSPost2010PropOp53
 70
     1
102
RTVSPost2010Prop54
  1
strokes_ogs.tif
102
RTVSPost2010PropOp54
 70
     1
102
RTVSPost2010Prop55
280
     0
102
RTVSPost2010PropOp55
 70
     1
102
RTVSPost2010Prop56
140
1.0
102
RTVSPost2010PropOp56
 70
     1
102
RTVSPost2010Prop57
140
1.0
102
RTVSPost2010PropOp57
 70
     1
  0
XRECORD
  5
C08
102
{ACAD_REACTORS
330
C07
102
}
330
C07
100
AcDbXrecord
280
     1
102
RTVSPost2010Prop28
280
     0
102
RTVSPost2010PropOp28
 70
     1
102
RTVSPost2010Prop29
280
     1
102
RTVSPost2010PropOp29
 70
     1
102
RTVSPost2010Prop30
280
     1
102
RTVSPost2010PropOp30
 70
     1
102
RTVSPost2010Prop31
280
     0
102
RTVSPost2010PropOp31
 70
     1
102
RTVSPost2010Prop32
280
     0
102
RTVSPost2010PropOp32
 70
     1
102
RTVSPost2010Prop33
280
     0
102
RTVSPost2010PropOp33
 70
     1
102
RTVSPost2010Prop34
280
     0
102
RTVSPost2010PropOp34
 70
     1
102
RTVSPost2010Prop35
280
     0
102
RTVSPost2010PropOp35
 70
     1
102
RTVSPost2010Prop36
280
     0
102
RTVSPost2010PropOp36
 70
     1
102
RTVSPost2010Prop37
 90
       50
102
RTVSPost2010PropOp37
 70
     1
102
RTVSPost2010Prop38
140
0.0
102
RTVSPost2010PropOp38
 70
     1
102
RTVSPost2010Prop39
140
1.0
102
RTVSPost2010PropOp39
 70
     1
102
RTVSPost2010Prop40
 90
        0
102
RTVSPost2010PropOp40
 70
     1
102
RTVSPost2010Prop41ColorIndex
 90
       18
102
RTVSPost2010Prop41ColorRGB
 90
        0
102
RTVSPost2010PropOp41
 70
     1
102
RTVSPost2010Prop42
 90
       50
102
RTVSPost2010PropOp42
 70
     1
102
RTVSPost2010Prop43
 90
        3
102
RTVSPost2010PropOp43
 70
     1
102
RTVSPost2010Prop44ColorIndex
 90
        5
102
RTVSPost2010Prop44ColorRGB
 90
      255
102
RTVSPost2010PropOp44
 70
     1
102
RTVSPost2010Prop45
280
     0
102
RTVSPost2010PropOp45
 70
     1
102
RTVSPost2010Prop46
 90
       50
102
RTVSPost2010PropOp46
 70
     1
102
RTVSPost2010Prop47
 90
       50
102
RTVSPost2010PropOp47
 70
     1
102
RTVSPost2010Prop48
 90
       50
102
RTVSPost2010PropOp48
 70
     1
102
RTVSPost2010Prop49
280
     0
102
RTVSPost2010PropOp49
 70
     1
102
RTVSPost2010Prop50
 90
       50
102
RTVSPost2010PropOp50
 70
     1
102
RTVSPost2010Prop51ColorIndex
 90
      256
102
RTVSPost2010Prop51ColorRGB
 90
-16777216
102
RTVSPost2010PropOp51
 70
     0
102
RTVSPost2010Prop52
140
1.0
102
RTVSPost2010PropOp52
 70
     0
102
RTVSPost2010Prop53
 90
        2
102
RTVSPost2010PropOp53
 70
     1
102
RTVSPost2010Prop54
  1
strokes_ogs.tif
102
RTVSPost2010PropOp54
 70
     1
102
RTVSPost2010Prop55
280
     0
102
RTVSPost2010PropOp55
 70
     1
102
RTVSPost2010Prop56
140
1.0
102
RTVSPost2010PropOp56
 70
     1
102
RTVSPost2010Prop57
140
1.0
102
RTVSPost2010PropOp57
 70
     1
  0
XRECORD
  5
C1C
102
{ACAD_REACTORS
330
C1B
102
}
330
C1B
100
AcDbXrecord
280
     1
102
RTVSPost2010Prop28
280
     0
102
RTVSPost2010PropOp28
 70
     1
102
RTVSPost2010Prop29
280
     1
102
RTVSPost2010PropOp29
 70
     1
102
RTVSPost2010Prop30
280
     1
102
RTVSPost2010PropOp30
 70
     1
102
RTVSPost2010Prop31
280
     0
102
RTVSPost2010PropOp31
 70
     1
102
RTVSPost2010Prop32
280
     0
102
RTVSPost2010PropOp32
 70
     1
102
RTVSPost2010Prop33
280
     0
102
RTVSPost2010PropOp33
 70
     1
102
RTVSPost2010Prop34
280
     0
102
RTVSPost2010PropOp34
 70
     1
102
RTVSPost2010Prop35
280
     0
102
RTVSPost2010PropOp35
 70
     1
102
RTVSPost2010Prop36
280
     0
102
RTVSPost2010PropOp36
 70
     1
102
RTVSPost2010Prop37
 90
       50
102
RTVSPost2010PropOp37
 70
     1
102
RTVSPost2010Prop38
140
0.0
102
RTVSPost2010PropOp38
 70
     1
102
RTVSPost2010Prop39
140
1.0
102
RTVSPost2010PropOp39
 70
     1
102
RTVSPost2010Prop40
 90
        0
102
RTVSPost2010PropOp40
 70
     1
102
RTVSPost2010Prop41ColorIndex
 90
       18
102
RTVSPost2010Prop41ColorRGB
 90
        0
102
RTVSPost2010PropOp41
 70
     1
102
RTVSPost2010Prop42
 90
       50
102
RTVSPost2010PropOp42
 70
     1
102
RTVSPost2010Prop43
 90
        3
102
RTVSPost2010PropOp43
 70
     1
102
RTVSPost2010Prop44ColorIndex
 90
        5
102
RTVSPost2010Prop44ColorRGB
 90
      255
102
RTVSPost2010PropOp44
 70
     1
102
RTVSPost2010Prop45
280
     0
102
RTVSPost2010PropOp45
 70
     1
102
RTVSPost2010Prop46
 90
       50
102
RTVSPost2010PropOp46
 70
     1
102
RTVSPost2010Prop47
 90
       50
102
RTVSPost2010PropOp47
 70
     1
102
RTVSPost2010Prop48
 90
       50
102
RTVSPost2010PropOp48
 70
     1
102
RTVSPost2010Prop49
280
     0
102
RTVSPost2010PropOp49
 70
     1
102
RTVSPost2010Prop50
 90
       50
102
RTVSPost2010PropOp50
 70
     1
102
RTVSPost2010Prop51ColorIndex
 90
      256
102
RTVSPost2010Prop51ColorRGB
 90
-16777216
102
RTVSPost2010PropOp51
 70
     0
102
RTVSPost2010Prop52
140
1.0
102
RTVSPost2010PropOp52
 70
     0
102
RTVSPost2010Prop53
 90
        2
102
RTVSPost2010PropOp53
 70
     1
102
RTVSPost2010Prop54
  1
strokes_ogs.tif
102
RTVSPost2010PropOp54
 70
     1
102
RTVSPost2010Prop55
280
     0
102
RTVSPost2010PropOp55
 70
     1
102
RTVSPost2010Prop56
140
1.0
102
RTVSPost2010PropOp56
 70
     1
102
RTVSPost2010Prop57
140
1.0
102
RTVSPost2010PropOp57
 70
     1
  0
XRECORD
  5
C10
102
{ACAD_REACTORS
330
C0F
102
}
330
C0F
100
AcDbXrecord
280
     1
102
RTVSPost2010Prop28
280
     0
102
RTVSPost2010PropOp28
 70
     1
102
RTVSPost2010Prop29
280
     1
102
RTVSPost2010PropOp29
 70
     1
102
RTVSPost2010Prop30
280
     1
102
RTVSPost2010PropOp30
 70
     1
102
RTVSPost2010Prop31
280
     0
102
RTVSPost2010PropOp31
 70
     1
102
RTVSPost2010Prop32
280
     0
102
RTVSPost2010PropOp32
 70
     1
102
RTVSPost2010Prop33
280
     0
102
RTVSPost2010PropOp33
 70
     1
102
RTVSPost2010Prop34
280
     0
102
RTVSPost2010PropOp34
 70
     1
102
RTVSPost2010Prop35
280
     0
102
RTVSPost2010PropOp35
 70
     1
102
RTVSPost2010Prop36
280
     0
102
RTVSPost2010PropOp36
 70
     1
102
RTVSPost2010Prop37
 90
       50
102
RTVSPost2010PropOp37
 70
     1
102
RTVSPost2010Prop38
140
0.0
102
RTVSPost2010PropOp38
 70
     1
102
RTVSPost2010Prop39
140
1.0
102
RTVSPost2010PropOp39
 70
     1
102
RTVSPost2010Prop40
 90
        0
102
RTVSPost2010PropOp40
 70
     1
102
RTVSPost2010Prop41ColorIndex
 90
       18
102
RTVSPost2010Prop41ColorRGB
 90
        0
102
RTVSPost2010PropOp41
 70
     1
102
RTVSPost2010Prop42
 90
       50
102
RTVSPost2010PropOp42
 70
     1
102
RTVSPost2010Prop43
 90
        3
102
RTVSPost2010PropOp43
 70
     1
102
RTVSPost2010Prop44ColorIndex
 90
        5
102
RTVSPost2010Prop44ColorRGB
 90
      255
102
RTVSPost2010PropOp44
 70
     1
102
RTVSPost2010Prop45
280
     0
102
RTVSPost2010PropOp45
 70
     1
102
RTVSPost2010Prop46
 90
       50
102
RTVSPost2010PropOp46
 70
     1
102
RTVSPost2010Prop47
 90
       50
102
RTVSPost2010PropOp47
 70
     1
102
RTVSPost2010Prop48
 90
       50
102
RTVSPost2010PropOp48
 70
     1
102
RTVSPost2010Prop49
280
     0
102
RTVSPost2010PropOp49
 70
     1
102
RTVSPost2010Prop50
 90
       50
102
RTVSPost2010PropOp50
 70
     1
102
RTVSPost2010Prop51ColorIndex
 90
      256
102
RTVSPost2010Prop51ColorRGB
 90
-16777216
102
RTVSPost2010PropOp51
 70
     0
102
RTVSPost2010Prop52
140
1.0
102
RTVSPost2010PropOp52
 70
     0
102
RTVSPost2010Prop53
 90
        2
102
RTVSPost2010PropOp53
 70
     1
102
RTVSPost2010Prop54
  1
strokes_ogs.tif
102
RTVSPost2010PropOp54
 70
     1
102
RTVSPost2010Prop55
280
     0
102
RTVSPost2010PropOp55
 70
     1
102
RTVSPost2010Prop56
140
1.0
102
RTVSPost2010PropOp56
 70
     1
102
RTVSPost2010Prop57
140
1.0
102
RTVSPost2010PropOp57
 70
     1
  0
XRECORD
  5
BF4
102
{ACAD_REACTORS
330
BF3
102
}
330
BF3
100
AcDbXrecord
280
     1
102
RTVSPost2010Prop28
280
     0
102
RTVSPost2010PropOp28
 70
     1
102
RTVSPost2010Prop29
280
     1
102
RTVSPost2010PropOp29
 70
     1
102
RTVSPost2010Prop30
280
     1
102
RTVSPost2010PropOp30
 70
     1
102
RTVSPost2010Prop31
280
     0
102
RTVSPost2010PropOp31
 70
     1
102
RTVSPost2010Prop32
280
     0
102
RTVSPost2010PropOp32
 70
     1
102
RTVSPost2010Prop33
280
     0
102
RTVSPost2010PropOp33
 70
     1
102
RTVSPost2010Prop34
280
     0
102
RTVSPost2010PropOp34
 70
     1
102
RTVSPost2010Prop35
280
     0
102
RTVSPost2010PropOp35
 70
     1
102
RTVSPost2010Prop36
280
     0
102
RTVSPost2010PropOp36
 70
     1
102
RTVSPost2010Prop37
 90
       50
102
RTVSPost2010PropOp37
 70
     1
102
RTVSPost2010Prop38
140
0.0
102
RTVSPost2010PropOp38
 70
     1
102
RTVSPost2010Prop39
140
1.0
102
RTVSPost2010PropOp39
 70
     1
102
RTVSPost2010Prop40
 90
        0
102
RTVSPost2010PropOp40
 70
     1
102
RTVSPost2010Prop41ColorIndex
 90
       18
102
RTVSPost2010Prop41ColorRGB
 90
        0
102
RTVSPost2010PropOp41
 70
     1
102
RTVSPost2010Prop42
 90
       50
102
RTVSPost2010PropOp42
 70
     1
102
RTVSPost2010Prop43
 90
        3
102
RTVSPost2010PropOp43
 70
     1
102
RTVSPost2010Prop44ColorIndex
 90
        5
102
RTVSPost2010Prop44ColorRGB
 90
      255
102
RTVSPost2010PropOp44
 70
     1
102
RTVSPost2010Prop45
280
     0
102
RTVSPost2010PropOp45
 70
     1
102
RTVSPost2010Prop46
 90
       50
102
RTVSPost2010PropOp46
 70
     1
102
RTVSPost2010Prop47
 90
       50
102
RTVSPost2010PropOp47
 70
     1
102
RTVSPost2010Prop48
 90
       50
102
RTVSPost2010PropOp48
 70
     1
102
RTVSPost2010Prop49
280
     0
102
RTVSPost2010PropOp49
 70
     1
102
RTVSPost2010Prop50
 90
       50
102
RTVSPost2010PropOp50
 70
     1
102
RTVSPost2010Prop51ColorIndex
 90
      256
102
RTVSPost2010Prop51ColorRGB
 90
-16777216
102
RTVSPost2010PropOp51
 70
     0
102
RTVSPost2010Prop52
140
1.0
102
RTVSPost2010PropOp52
 70
     0
102
RTVSPost2010Prop53
 90
        2
102
RTVSPost2010PropOp53
 70
     1
102
RTVSPost2010Prop54
  1
strokes_ogs.tif
102
RTVSPost2010PropOp54
 70
     1
102
RTVSPost2010Prop55
280
     0
102
RTVSPost2010PropOp55
 70
     1
102
RTVSPost2010Prop56
140
1.0
102
RTVSPost2010PropOp56
 70
     1
102
RTVSPost2010Prop57
140
1.0
102
RTVSPost2010PropOp57
 70
     1
  0
XRECORD
  5
BF6
102
{ACAD_REACTORS
330
BF5
102
}
330
BF5
100
AcDbXrecord
280
     1
102
RTVSPost2010Prop28
280
     0
102
RTVSPost2010PropOp28
 70
     1
102
RTVSPost2010Prop29
280
     1
102
RTVSPost2010PropOp29
 70
     1
102
RTVSPost2010Prop30
280
     1
102
RTVSPost2010PropOp30
 70
     1
102
RTVSPost2010Prop31
280
     0
102
RTVSPost2010PropOp31
 70
     1
102
RTVSPost2010Prop32
280
     0
102
RTVSPost2010PropOp32
 70
     1
102
RTVSPost2010Prop33
280
     0
102
RTVSPost2010PropOp33
 70
     1
102
RTVSPost2010Prop34
280
     0
102
RTVSPost2010PropOp34
 70
     1
102
RTVSPost2010Prop35
280
     0
102
RTVSPost2010PropOp35
 70
     1
102
RTVSPost2010Prop36
280
     0
102
RTVSPost2010PropOp36
 70
     1
102
RTVSPost2010Prop37
 90
       50
102
RTVSPost2010PropOp37
 70
     1
102
RTVSPost2010Prop38
140
0.0
102
RTVSPost2010PropOp38
 70
     1
102
RTVSPost2010Prop39
140
1.0
102
RTVSPost2010PropOp39
 70
     1
102
RTVSPost2010Prop40
 90
        0
102
RTVSPost2010PropOp40
 70
     1
102
RTVSPost2010Prop41ColorIndex
 90
       18
102
RTVSPost2010Prop41ColorRGB
 90
        0
102
RTVSPost2010PropOp41
 70
     1
102
RTVSPost2010Prop42
 90
       50
102
RTVSPost2010PropOp42
 70
     1
102
RTVSPost2010Prop43
 90
        3
102
RTVSPost2010PropOp43
 70
     1
102
RTVSPost2010Prop44ColorIndex
 90
        5
102
RTVSPost2010Prop44ColorRGB
 90
      255
102
RTVSPost2010PropOp44
 70
     1
102
RTVSPost2010Prop45
280
     0
102
RTVSPost2010PropOp45
 70
     1
102
RTVSPost2010Prop46
 90
       50
102
RTVSPost2010PropOp46
 70
     1
102
RTVSPost2010Prop47
 90
       50
102
RTVSPost2010PropOp47
 70
     1
102
RTVSPost2010Prop48
 90
       50
102
RTVSPost2010PropOp48
 70
     1
102
RTVSPost2010Prop49
280
     0
102
RTVSPost2010PropOp49
 70
     1
102
RTVSPost2010Prop50
 90
       50
102
RTVSPost2010PropOp50
 70
     1
102
RTVSPost2010Prop51ColorIndex
 90
      256
102
RTVSPost2010Prop51ColorRGB
 90
-16777216
102
RTVSPost2010PropOp51
 70
     0
102
RTVSPost2010Prop52
140
1.0
102
RTVSPost2010PropOp52
 70
     0
102
RTVSPost2010Prop53
 90
        2
102
RTVSPost2010PropOp53
 70
     1
102
RTVSPost2010Prop54
  1
strokes_ogs.tif
102
RTVSPost2010PropOp54
 70
     1
102
RTVSPost2010Prop55
280
     0
102
RTVSPost2010PropOp55
 70
     1
102
RTVSPost2010Prop56
140
1.0
102
RTVSPost2010PropOp56
 70
     1
102
RTVSPost2010Prop57
140
1.0
102
RTVSPost2010PropOp57
 70
     1
  0
XRECORD
  5
BF8
102
{ACAD_REACTORS
330
BF7
102
}
330
BF7
100
AcDbXrecord
280
     1
102
RTVSPost2010Prop28
280
     0
102
RTVSPost2010PropOp28
 70
     1
102
RTVSPost2010Prop29
280
     1
102
RTVSPost2010PropOp29
 70
     1
102
RTVSPost2010Prop30
280
     1
102
RTVSPost2010PropOp30
 70
     1
102
RTVSPost2010Prop31
280
     0
102
RTVSPost2010PropOp31
 70
     1
102
RTVSPost2010Prop32
280
     0
102
RTVSPost2010PropOp32
 70
     1
102
RTVSPost2010Prop33
280
     0
102
RTVSPost2010PropOp33
 70
     1
102
RTVSPost2010Prop34
280
     0
102
RTVSPost2010PropOp34
 70
     1
102
RTVSPost2010Prop35
280
     0
102
RTVSPost2010PropOp35
 70
     1
102
RTVSPost2010Prop36
280
     0
102
RTVSPost2010PropOp36
 70
     1
102
RTVSPost2010Prop37
 90
       50
102
RTVSPost2010PropOp37
 70
     1
102
RTVSPost2010Prop38
140
0.0
102
RTVSPost2010PropOp38
 70
     1
102
RTVSPost2010Prop39
140
1.0
102
RTVSPost2010PropOp39
 70
     1
102
RTVSPost2010Prop40
 90
        0
102
RTVSPost2010PropOp40
 70
     1
102
RTVSPost2010Prop41ColorIndex
 90
       18
102
RTVSPost2010Prop41ColorRGB
 90
        0
102
RTVSPost2010PropOp41
 70
     1
102
RTVSPost2010Prop42
 90
       50
102
RTVSPost2010PropOp42
 70
     1
102
RTVSPost2010Prop43
 90
        3
102
RTVSPost2010PropOp43
 70
     1
102
RTVSPost2010Prop44ColorIndex
 90
        5
102
RTVSPost2010Prop44ColorRGB
 90
      255
102
RTVSPost2010PropOp44
 70
     1
102
RTVSPost2010Prop45
280
     0
102
RTVSPost2010PropOp45
 70
     1
102
RTVSPost2010Prop46
 90
       50
102
RTVSPost2010PropOp46
 70
     1
102
RTVSPost2010Prop47
 90
       50
102
RTVSPost2010PropOp47
 70
     1
102
RTVSPost2010Prop48
 90
       50
102
RTVSPost2010PropOp48
 70
     1
102
RTVSPost2010Prop49
280
     0
102
RTVSPost2010PropOp49
 70
     1
102
RTVSPost2010Prop50
 90
       50
102
RTVSPost2010PropOp50
 70
     1
102
RTVSPost2010Prop51ColorIndex
 90
      256
102
RTVSPost2010Prop51ColorRGB
 90
-16777216
102
RTVSPost2010PropOp51
 70
     0
102
RTVSPost2010Prop52
140
1.0
102
RTVSPost2010PropOp52
 70
     0
102
RTVSPost2010Prop53
 90
        2
102
RTVSPost2010PropOp53
 70
     1
102
RTVSPost2010Prop54
  1
strokes_ogs.tif
102
RTVSPost2010PropOp54
 70
     1
102
RTVSPost2010Prop55
280
     0
102
RTVSPost2010PropOp55
 70
     1
102
RTVSPost2010Prop56
140
1.0
102
RTVSPost2010PropOp56
 70
     1
102
RTVSPost2010Prop57
140
1.0
102
RTVSPost2010PropOp57
 70
     1
  0
XRECORD
  5
BFA
102
{ACAD_REACTORS
330
BF9
102
}
330
BF9
100
AcDbXrecord
280
     1
102
RTVSPost2010Prop28
280
     0
102
RTVSPost2010PropOp28
 70
     1
102
RTVSPost2010Prop29
280
     1
102
RTVSPost2010PropOp29
 70
     1
102
RTVSPost2010Prop30
280
     1
102
RTVSPost2010PropOp30
 70
     1
102
RTVSPost2010Prop31
280
     0
102
RTVSPost2010PropOp31
 70
     1
102
RTVSPost2010Prop32
280
     0
102
RTVSPost2010PropOp32
 70
     1
102
RTVSPost2010Prop33
280
     0
102
RTVSPost2010PropOp33
 70
     1
102
RTVSPost2010Prop34
280
     0
102
RTVSPost2010PropOp34
 70
     1
102
RTVSPost2010Prop35
280
     0
102
RTVSPost2010PropOp35
 70
     1
102
RTVSPost2010Prop36
280
     0
102
RTVSPost2010PropOp36
 70
     1
102
RTVSPost2010Prop37
 90
       50
102
RTVSPost2010PropOp37
 70
     1
102
RTVSPost2010Prop38
140
0.0
102
RTVSPost2010PropOp38
 70
     1
102
RTVSPost2010Prop39
140
1.0
102
RTVSPost2010PropOp39
 70
     1
102
RTVSPost2010Prop40
 90
        0
102
RTVSPost2010PropOp40
 70
     1
102
RTVSPost2010Prop41ColorIndex
 90
       18
102
RTVSPost2010Prop41ColorRGB
 90
        0
102
RTVSPost2010PropOp41
 70
     1
102
RTVSPost2010Prop42
 90
       50
102
RTVSPost2010PropOp42
 70
     1
102
RTVSPost2010Prop43
 90
        3
102
RTVSPost2010PropOp43
 70
     1
102
RTVSPost2010Prop44ColorIndex
 90
        5
102
RTVSPost2010Prop44ColorRGB
 90
      255
102
RTVSPost2010PropOp44
 70
     1
102
RTVSPost2010Prop45
280
     0
102
RTVSPost2010PropOp45
 70
     1
102
RTVSPost2010Prop46
 90
       50
102
RTVSPost2010PropOp46
 70
     1
102
RTVSPost2010Prop47
 90
       50
102
RTVSPost2010PropOp47
 70
     1
102
RTVSPost2010Prop48
 90
       50
102
RTVSPost2010PropOp48
 70
     1
102
RTVSPost2010Prop49
280
     0
102
RTVSPost2010PropOp49
 70
     1
102
RTVSPost2010Prop50
 90
       50
102
RTVSPost2010PropOp50
 70
     1
102
RTVSPost2010Prop51ColorIndex
 90
      256
102
RTVSPost2010Prop51ColorRGB
 90
-16777216
102
RTVSPost2010PropOp51
 70
     0
102
RTVSPost2010Prop52
140
1.0
102
RTVSPost2010PropOp52
 70
     0
102
RTVSPost2010Prop53
 90
        2
102
RTVSPost2010PropOp53
 70
     1
102
RTVSPost2010Prop54
  1
strokes_ogs.tif
102
RTVSPost2010PropOp54
 70
     1
102
RTVSPost2010Prop55
280
     0
102
RTVSPost2010PropOp55
 70
     1
102
RTVSPost2010Prop56
140
1.0
102
RTVSPost2010PropOp56
 70
     1
102
RTVSPost2010Prop57
140
1.0
102
RTVSPost2010PropOp57
 70
     1
  0
XRECORD
  5
C16
102
{ACAD_REACTORS
330
C15
102
}
330
C15
100
AcDbXrecord
280
     1
102
RTVSPost2010Prop28
280
     0
102
RTVSPost2010PropOp28
 70
     1
102
RTVSPost2010Prop29
280
     1
102
RTVSPost2010PropOp29
 70
     1
102
RTVSPost2010Prop30
280
     1
102
RTVSPost2010PropOp30
 70
     1
102
RTVSPost2010Prop31
280
     0
102
RTVSPost2010PropOp31
 70
     1
102
RTVSPost2010Prop32
280
     0
102
RTVSPost2010PropOp32
 70
     1
102
RTVSPost2010Prop33
280
     0
102
RTVSPost2010PropOp33
 70
     1
102
RTVSPost2010Prop34
280
     0
102
RTVSPost2010PropOp34
 70
     1
102
RTVSPost2010Prop35
280
     0
102
RTVSPost2010PropOp35
 70
     1
102
RTVSPost2010Prop36
280
     0
102
RTVSPost2010PropOp36
 70
     1
102
RTVSPost2010Prop37
 90
       50
102
RTVSPost2010PropOp37
 70
     1
102
RTVSPost2010Prop38
140
0.0
102
RTVSPost2010PropOp38
 70
     1
102
RTVSPost2010Prop39
140
1.0
102
RTVSPost2010PropOp39
 70
     1
102
RTVSPost2010Prop40
 90
        0
102
RTVSPost2010PropOp40
 70
     1
102
RTVSPost2010Prop41ColorIndex
 90
       18
102
RTVSPost2010Prop41ColorRGB
 90
        0
102
RTVSPost2010PropOp41
 70
     1
102
RTVSPost2010Prop42
 90
       50
102
RTVSPost2010PropOp42
 70
     1
102
RTVSPost2010Prop43
 90
        3
102
RTVSPost2010PropOp43
 70
     1
102
RTVSPost2010Prop44ColorIndex
 90
        5
102
RTVSPost2010Prop44ColorRGB
 90
      255
102
RTVSPost2010PropOp44
 70
     1
102
RTVSPost2010Prop45
280
     0
102
RTVSPost2010PropOp45
 70
     1
102
RTVSPost2010Prop46
 90
       50
102
RTVSPost2010PropOp46
 70
     1
102
RTVSPost2010Prop47
 90
       50
102
RTVSPost2010PropOp47
 70
     1
102
RTVSPost2010Prop48
 90
       50
102
RTVSPost2010PropOp48
 70
     1
102
RTVSPost2010Prop49
280
     0
102
RTVSPost2010PropOp49
 70
     1
102
RTVSPost2010Prop50
 90
       50
102
RTVSPost2010PropOp50
 70
     1
102
RTVSPost2010Prop51ColorIndex
 90
      256
102
RTVSPost2010Prop51ColorRGB
 90
-16777216
102
RTVSPost2010PropOp51
 70
     0
102
RTVSPost2010Prop52
140
1.0
102
RTVSPost2010PropOp52
 70
     0
102
RTVSPost2010Prop53
 90
        2
102
RTVSPost2010PropOp53
 70
     1
102
RTVSPost2010Prop54
  1
strokes_ogs.tif
102
RTVSPost2010PropOp54
 70
     1
102
RTVSPost2010Prop55
280
     0
102
RTVSPost2010PropOp55
 70
     1
102
RTVSPost2010Prop56
140
1.0
102
RTVSPost2010PropOp56
 70
     1
102
RTVSPost2010Prop57
140
1.0
102
RTVSPost2010PropOp57
 70
     1
  0
XRECORD
  5
C18
102
{ACAD_REACTORS
330
C17
102
}
330
C17
100
AcDbXrecord
280
     1
102
RTVSPost2010Prop28
280
     0
102
RTVSPost2010PropOp28
 70
     1
102
RTVSPost2010Prop29
280
     1
102
RTVSPost2010PropOp29
 70
     1
102
RTVSPost2010Prop30
280
     1
102
RTVSPost2010PropOp30
 70
     1
102
RTVSPost2010Prop31
280
     0
102
RTVSPost2010PropOp31
 70
     1
102
RTVSPost2010Prop32
280
     0
102
RTVSPost2010PropOp32
 70
     1
102
RTVSPost2010Prop33
280
     0
102
RTVSPost2010PropOp33
 70
     1
102
RTVSPost2010Prop34
280
     0
102
RTVSPost2010PropOp34
 70
     1
102
RTVSPost2010Prop35
280
     0
102
RTVSPost2010PropOp35
 70
     1
102
RTVSPost2010Prop36
280
     0
102
RTVSPost2010PropOp36
 70
     1
102
RTVSPost2010Prop37
 90
       50
102
RTVSPost2010PropOp37
 70
     1
102
RTVSPost2010Prop38
140
0.0
102
RTVSPost2010PropOp38
 70
     1
102
RTVSPost2010Prop39
140
1.0
102
RTVSPost2010PropOp39
 70
     1
102
RTVSPost2010Prop40
 90
        0
102
RTVSPost2010PropOp40
 70
     1
102
RTVSPost2010Prop41ColorIndex
 90
       18
102
RTVSPost2010Prop41ColorRGB
 90
        0
102
RTVSPost2010PropOp41
 70
     1
102
RTVSPost2010Prop42
 90
       50
102
RTVSPost2010PropOp42
 70
     1
102
RTVSPost2010Prop43
 90
        3
102
RTVSPost2010PropOp43
 70
     1
102
RTVSPost2010Prop44ColorIndex
 90
        5
102
RTVSPost2010Prop44ColorRGB
 90
      255
102
RTVSPost2010PropOp44
 70
     1
102
RTVSPost2010Prop45
280
     0
102
RTVSPost2010PropOp45
 70
     1
102
RTVSPost2010Prop46
 90
       50
102
RTVSPost2010PropOp46
 70
     1
102
RTVSPost2010Prop47
 90
       50
102
RTVSPost2010PropOp47
 70
     1
102
RTVSPost2010Prop48
 90
       50
102
RTVSPost2010PropOp48
 70
     1
102
RTVSPost2010Prop49
280
     0
102
RTVSPost2010PropOp49
 70
     1
102
RTVSPost2010Prop50
 90
       50
102
RTVSPost2010PropOp50
 70
     1
102
RTVSPost2010Prop51ColorIndex
 90
      256
102
RTVSPost2010Prop51ColorRGB
 90
-16777216
102
RTVSPost2010PropOp51
 70
     0
102
RTVSPost2010Prop52
140
1.0
102
RTVSPost2010PropOp52
 70
     0
102
RTVSPost2010Prop53
 90
        2
102
RTVSPost2010PropOp53
 70
     1
102
RTVSPost2010Prop54
  1
strokes_ogs.tif
102
RTVSPost2010PropOp54
 70
     1
102
RTVSPost2010Prop55
280
     0
102
RTVSPost2010PropOp55
 70
     1
102
RTVSPost2010Prop56
140
1.0
102
RTVSPost2010PropOp56
 70
     1
102
RTVSPost2010Prop57
140
1.0
102
RTVSPost2010PropOp57
 70
     1
  0
XRECORD
  5
C0E
102
{ACAD_REACTORS
330
C0D
102
}
330
C0D
100
AcDbXrecord
280
     1
102
RTVSPost2010Prop28
280
     0
102
RTVSPost2010PropOp28
 70
     1
102
RTVSPost2010Prop29
280
     1
102
RTVSPost2010PropOp29
 70
     1
102
RTVSPost2010Prop30
280
     1
102
RTVSPost2010PropOp30
 70
     1
102
RTVSPost2010Prop31
280
     0
102
RTVSPost2010PropOp31
 70
     1
102
RTVSPost2010Prop32
280
     0
102
RTVSPost2010PropOp32
 70
     1
102
RTVSPost2010Prop33
280
     0
102
RTVSPost2010PropOp33
 70
     1
102
RTVSPost2010Prop34
280
     0
102
RTVSPost2010PropOp34
 70
     1
102
RTVSPost2010Prop35
280
     0
102
RTVSPost2010PropOp35
 70
     1
102
RTVSPost2010Prop36
280
     0
102
RTVSPost2010PropOp36
 70
     1
102
RTVSPost2010Prop37
 90
       50
102
RTVSPost2010PropOp37
 70
     1
102
RTVSPost2010Prop38
140
0.0
102
RTVSPost2010PropOp38
 70
     1
102
RTVSPost2010Prop39
140
1.0
102
RTVSPost2010PropOp39
 70
     1
102
RTVSPost2010Prop40
 90
        0
102
RTVSPost2010PropOp40
 70
     1
102
RTVSPost2010Prop41ColorIndex
 90
       18
102
RTVSPost2010Prop41ColorRGB
 90
        0
102
RTVSPost2010PropOp41
 70
     1
102
RTVSPost2010Prop42
 90
       50
102
RTVSPost2010PropOp42
 70
     1
102
RTVSPost2010Prop43
 90
        3
102
RTVSPost2010PropOp43
 70
     1
102
RTVSPost2010Prop44ColorIndex
 90
        5
102
RTVSPost2010Prop44ColorRGB
 90
      255
102
RTVSPost2010PropOp44
 70
     1
102
RTVSPost2010Prop45
280
     0
102
RTVSPost2010PropOp45
 70
     1
102
RTVSPost2010Prop46
 90
       50
102
RTVSPost2010PropOp46
 70
     1
102
RTVSPost2010Prop47
 90
       50
102
RTVSPost2010PropOp47
 70
     1
102
RTVSPost2010Prop48
 90
       50
102
RTVSPost2010PropOp48
 70
     1
102
RTVSPost2010Prop49
280
     0
102
RTVSPost2010PropOp49
 70
     1
102
RTVSPost2010Prop50
 90
       50
102
RTVSPost2010PropOp50
 70
     1
102
RTVSPost2010Prop51ColorIndex
 90
      256
102
RTVSPost2010Prop51ColorRGB
 90
-16777216
102
RTVSPost2010PropOp51
 70
     0
102
RTVSPost2010Prop52
140
1.0
102
RTVSPost2010PropOp52
 70
     0
102
RTVSPost2010Prop53
 90
        2
102
RTVSPost2010PropOp53
 70
     1
102
RTVSPost2010Prop54
  1
strokes_ogs.tif
102
RTVSPost2010PropOp54
 70
     1
102
RTVSPost2010Prop55
280
     0
102
RTVSPost2010PropOp55
 70
     1
102
RTVSPost2010Prop56
140
1.0
102
RTVSPost2010PropOp56
 70
     1
102
RTVSPost2010Prop57
140
1.0
102
RTVSPost2010PropOp57
 70
     1
  0
XRECORD
  5
C1A
102
{ACAD_REACTORS
330
C19
102
}
330
C19
100
AcDbXrecord
280
     1
102
RTVSPost2010Prop28
280
     0
102
RTVSPost2010PropOp28
 70
     1
102
RTVSPost2010Prop29
280
     1
102
RTVSPost2010PropOp29
 70
     1
102
RTVSPost2010Prop30
280
     1
102
RTVSPost2010PropOp30
 70
     1
102
RTVSPost2010Prop31
280
     0
102
RTVSPost2010PropOp31
 70
     1
102
RTVSPost2010Prop32
280
     0
102
RTVSPost2010PropOp32
 70
     1
102
RTVSPost2010Prop33
280
     0
102
RTVSPost2010PropOp33
 70
     1
102
RTVSPost2010Prop34
280
     0
102
RTVSPost2010PropOp34
 70
     1
102
RTVSPost2010Prop35
280
     0
102
RTVSPost2010PropOp35
 70
     1
102
RTVSPost2010Prop36
280
     0
102
RTVSPost2010PropOp36
 70
     1
102
RTVSPost2010Prop37
 90
       50
102
RTVSPost2010PropOp37
 70
     1
102
RTVSPost2010Prop38
140
0.0
102
RTVSPost2010PropOp38
 70
     1
102
RTVSPost2010Prop39
140
1.0
102
RTVSPost2010PropOp39
 70
     1
102
RTVSPost2010Prop40
 90
        0
102
RTVSPost2010PropOp40
 70
     1
102
RTVSPost2010Prop41ColorIndex
 90
       18
102
RTVSPost2010Prop41ColorRGB
 90
        0
102
RTVSPost2010PropOp41
 70
     1
102
RTVSPost2010Prop42
 90
       50
102
RTVSPost2010PropOp42
 70
     1
102
RTVSPost2010Prop43
 90
        3
102
RTVSPost2010PropOp43
 70
     1
102
RTVSPost2010Prop44ColorIndex
 90
        5
102
RTVSPost2010Prop44ColorRGB
 90
      255
102
RTVSPost2010PropOp44
 70
     1
102
RTVSPost2010Prop45
280
     0
102
RTVSPost2010PropOp45
 70
     1
102
RTVSPost2010Prop46
 90
       50
102
RTVSPost2010PropOp46
 70
     1
102
RTVSPost2010Prop47
 90
       50
102
RTVSPost2010PropOp47
 70
     1
102
RTVSPost2010Prop48
 90
       50
102
RTVSPost2010PropOp48
 70
     1
102
RTVSPost2010Prop49
280
     0
102
RTVSPost2010PropOp49
 70
     1
102
RTVSPost2010Prop50
 90
       50
102
RTVSPost2010PropOp50
 70
     1
102
RTVSPost2010Prop51ColorIndex
 90
      256
102
RTVSPost2010Prop51ColorRGB
 90
-16777216
102
RTVSPost2010PropOp51
 70
     0
102
RTVSPost2010Prop52
140
1.0
102
RTVSPost2010PropOp52
 70
     0
102
RTVSPost2010Prop53
 90
        2
102
RTVSPost2010PropOp53
 70
     1
102
RTVSPost2010Prop54
  1
strokes_ogs.tif
102
RTVSPost2010PropOp54
 70
     1
102
RTVSPost2010Prop55
280
     0
102
RTVSPost2010PropOp55
 70
     1
102
RTVSPost2010Prop56
140
1.0
102
RTVSPost2010PropOp56
 70
     1
102
RTVSPost2010Prop57
140
1.0
102
RTVSPost2010PropOp57
 70
     1
  0
XRECORD
  5
C04
102
{ACAD_REACTORS
330
C03
102
}
330
C03
100
AcDbXrecord
280
     1
102
RTVSPost2010Prop28
280
     0
102
RTVSPost2010PropOp28
 70
     1
102
RTVSPost2010Prop29
280
     1
102
RTVSPost2010PropOp29
 70
     1
102
RTVSPost2010Prop30
280
     1
102
RTVSPost2010PropOp30
 70
     1
102
RTVSPost2010Prop31
280
     0
102
RTVSPost2010PropOp31
 70
     1
102
RTVSPost2010Prop32
280
     0
102
RTVSPost2010PropOp32
 70
     1
102
RTVSPost2010Prop33
280
     0
102
RTVSPost2010PropOp33
 70
     1
102
RTVSPost2010Prop34
280
     0
102
RTVSPost2010PropOp34
 70
     1
102
RTVSPost2010Prop35
280
     0
102
RTVSPost2010PropOp35
 70
     1
102
RTVSPost2010Prop36
280
     0
102
RTVSPost2010PropOp36
 70
     1
102
RTVSPost2010Prop37
 90
       50
102
RTVSPost2010PropOp37
 70
     1
102
RTVSPost2010Prop38
140
0.0
102
RTVSPost2010PropOp38
 70
     1
102
RTVSPost2010Prop39
140
1.0
102
RTVSPost2010PropOp39
 70
     1
102
RTVSPost2010Prop40
 90
        0
102
RTVSPost2010PropOp40
 70
     1
102
RTVSPost2010Prop41ColorIndex
 90
       18
102
RTVSPost2010Prop41ColorRGB
 90
        0
102
RTVSPost2010PropOp41
 70
     1
102
RTVSPost2010Prop42
 90
       50
102
RTVSPost2010PropOp42
 70
     1
102
RTVSPost2010Prop43
 90
        3
102
RTVSPost2010PropOp43
 70
     1
102
RTVSPost2010Prop44ColorIndex
 90
        5
102
RTVSPost2010Prop44ColorRGB
 90
      255
102
RTVSPost2010PropOp44
 70
     1
102
RTVSPost2010Prop45
280
     0
102
RTVSPost2010PropOp45
 70
     1
102
RTVSPost2010Prop46
 90
       50
102
RTVSPost2010PropOp46
 70
     1
102
RTVSPost2010Prop47
 90
       50
102
RTVSPost2010PropOp47
 70
     1
102
RTVSPost2010Prop48
 90
       50
102
RTVSPost2010PropOp48
 70
     1
102
RTVSPost2010Prop49
280
     0
102
RTVSPost2010PropOp49
 70
     1
102
RTVSPost2010Prop50
 90
       50
102
RTVSPost2010PropOp50
 70
     1
102
RTVSPost2010Prop51ColorIndex
 90
      256
102
RTVSPost2010Prop51ColorRGB
 90
-16777216
102
RTVSPost2010PropOp51
 70
     0
102
RTVSPost2010Prop52
140
1.0
102
RTVSPost2010PropOp52
 70
     0
102
RTVSPost2010Prop53
 90
        2
102
RTVSPost2010PropOp53
 70
     1
102
RTVSPost2010Prop54
  1
strokes_ogs.tif
102
RTVSPost2010PropOp54
 70
     1
102
RTVSPost2010Prop55
280
     0
102
RTVSPost2010PropOp55
 70
     1
102
RTVSPost2010Prop56
140
1.0
102
RTVSPost2010PropOp56
 70
     1
102
RTVSPost2010Prop57
140
1.0
102
RTVSPost2010PropOp57
 70
     1
  0
XRECORD
  5
C26
102
{ACAD_REACTORS
330
C25
102
}
330
C25
100
AcDbXrecord
280
     1
102
RTVSPost2010Prop28
280
     0
102
RTVSPost2010PropOp28
 70
     1
102
RTVSPost2010Prop29
280
     1
102
RTVSPost2010PropOp29
 70
     1
102
RTVSPost2010Prop30
280
     1
102
RTVSPost2010PropOp30
 70
     1
102
RTVSPost2010Prop31
280
     0
102
RTVSPost2010PropOp31
 70
     1
102
RTVSPost2010Prop32
280
     0
102
RTVSPost2010PropOp32
 70
     1
102
RTVSPost2010Prop33
280
     0
102
RTVSPost2010PropOp33
 70
     1
102
RTVSPost2010Prop34
280
     0
102
RTVSPost2010PropOp34
 70
     1
102
RTVSPost2010Prop35
280
     0
102
RTVSPost2010PropOp35
 70
     1
102
RTVSPost2010Prop36
280
     0
102
RTVSPost2010PropOp36
 70
     1
102
RTVSPost2010Prop37
 90
       50
102
RTVSPost2010PropOp37
 70
     1
102
RTVSPost2010Prop38
140
0.0
102
RTVSPost2010PropOp38
 70
     1
102
RTVSPost2010Prop39
140
1.0
102
RTVSPost2010PropOp39
 70
     1
102
RTVSPost2010Prop40
 90
        0
102
RTVSPost2010PropOp40
 70
     1
102
RTVSPost2010Prop41ColorIndex
 90
       18
102
RTVSPost2010Prop41ColorRGB
 90
        0
102
RTVSPost2010PropOp41
 70
     1
102
RTVSPost2010Prop42
 90
       50
102
RTVSPost2010PropOp42
 70
     1
102
RTVSPost2010Prop43
 90
        3
102
RTVSPost2010PropOp43
 70
     1
102
RTVSPost2010Prop44ColorIndex
 90
        5
102
RTVSPost2010Prop44ColorRGB
 90
      255
102
RTVSPost2010PropOp44
 70
     1
102
RTVSPost2010Prop45
280
     0
102
RTVSPost2010PropOp45
 70
     1
102
RTVSPost2010Prop46
 90
       50
102
RTVSPost2010PropOp46
 70
     1
102
RTVSPost2010Prop47
 90
       50
102
RTVSPost2010PropOp47
 70
     1
102
RTVSPost2010Prop48
 90
       50
102
RTVSPost2010PropOp48
 70
     1
102
RTVSPost2010Prop49
280
     0
102
RTVSPost2010PropOp49
 70
     1
102
RTVSPost2010Prop50
 90
       50
102
RTVSPost2010PropOp50
 70
     1
102
RTVSPost2010Prop51ColorIndex
 90
      256
102
RTVSPost2010Prop51ColorRGB
 90
-16777216
102
RTVSPost2010PropOp51
 70
     0
102
RTVSPost2010Prop52
140
1.0
102
RTVSPost2010PropOp52
 70
     0
102
RTVSPost2010Prop53
 90
        2
102
RTVSPost2010PropOp53
 70
     1
102
RTVSPost2010Prop54
  1
strokes_ogs.tif
102
RTVSPost2010PropOp54
 70
     1
102
RTVSPost2010Prop55
280
     0
102
RTVSPost2010PropOp55
 70
     1
102
RTVSPost2010Prop56
140
1.0
102
RTVSPost2010PropOp56
 70
     1
102
RTVSPost2010Prop57
140
1.0
102
RTVSPost2010PropOp57
 70
     1
  0
XRECORD
  5
C24
102
{ACAD_REACTORS
330
C23
102
}
330
C23
100
AcDbXrecord
280
     1
102
RTVSPost2010Prop28
280
     0
102
RTVSPost2010PropOp28
 70
     1
102
RTVSPost2010Prop29
280
     1
102
RTVSPost2010PropOp29
 70
     1
102
RTVSPost2010Prop30
280
     1
102
RTVSPost2010PropOp30
 70
     1
102
RTVSPost2010Prop31
280
     0
102
RTVSPost2010PropOp31
 70
     1
102
RTVSPost2010Prop32
280
     0
102
RTVSPost2010PropOp32
 70
     1
102
RTVSPost2010Prop33
280
     0
102
RTVSPost2010PropOp33
 70
     1
102
RTVSPost2010Prop34
280
     0
102
RTVSPost2010PropOp34
 70
     1
102
RTVSPost2010Prop35
280
     0
102
RTVSPost2010PropOp35
 70
     1
102
RTVSPost2010Prop36
280
     0
102
RTVSPost2010PropOp36
 70
     1
102
RTVSPost2010Prop37
 90
       50
102
RTVSPost2010PropOp37
 70
     1
102
RTVSPost2010Prop38
140
0.0
102
RTVSPost2010PropOp38
 70
     1
102
RTVSPost2010Prop39
140
1.0
102
RTVSPost2010PropOp39
 70
     1
102
RTVSPost2010Prop40
 90
        0
102
RTVSPost2010PropOp40
 70
     1
102
RTVSPost2010Prop41ColorIndex
 90
       18
102
RTVSPost2010Prop41ColorRGB
 90
        0
102
RTVSPost2010PropOp41
 70
     1
102
RTVSPost2010Prop42
 90
       50
102
RTVSPost2010PropOp42
 70
     1
102
RTVSPost2010Prop43
 90
        3
102
RTVSPost2010PropOp43
 70
     1
102
RTVSPost2010Prop44ColorIndex
 90
        5
102
RTVSPost2010Prop44ColorRGB
 90
      255
102
RTVSPost2010PropOp44
 70
     1
102
RTVSPost2010Prop45
280
     0
102
RTVSPost2010PropOp45
 70
     1
102
RTVSPost2010Prop46
 90
       50
102
RTVSPost2010PropOp46
 70
     1
102
RTVSPost2010Prop47
 90
       50
102
RTVSPost2010PropOp47
 70
     1
102
RTVSPost2010Prop48
 90
       50
102
RTVSPost2010PropOp48
 70
     1
102
RTVSPost2010Prop49
280
     0
102
RTVSPost2010PropOp49
 70
     1
102
RTVSPost2010Prop50
 90
       50
102
RTVSPost2010PropOp50
 70
     1
102
RTVSPost2010Prop51ColorIndex
 90
      256
102
RTVSPost2010Prop51ColorRGB
 90
-16777216
102
RTVSPost2010PropOp51
 70
     0
102
RTVSPost2010Prop52
140
1.0
102
RTVSPost2010PropOp52
 70
     0
102
RTVSPost2010Prop53
 90
        2
102
RTVSPost2010PropOp53
 70
     1
102
RTVSPost2010Prop54
  1
strokes_ogs.tif
102
RTVSPost2010PropOp54
 70
     1
102
RTVSPost2010Prop55
280
     0
102
RTVSPost2010PropOp55
 70
     1
102
RTVSPost2010Prop56
140
1.0
102
RTVSPost2010PropOp56
 70
     1
102
RTVSPost2010Prop57
140
1.0
102
RTVSPost2010PropOp57
 70
     1
  0
XRECORD
  5
C1E
102
{ACAD_REACTORS
330
C1D
102
}
330
C1D
100
AcDbXrecord
280
     1
102
RTVSPost2010Prop28
280
     0
102
RTVSPost2010PropOp28
 70
     1
102
RTVSPost2010Prop29
280
     1
102
RTVSPost2010PropOp29
 70
     1
102
RTVSPost2010Prop30
280
     1
102
RTVSPost2010PropOp30
 70
     1
102
RTVSPost2010Prop31
280
     0
102
RTVSPost2010PropOp31
 70
     1
102
RTVSPost2010Prop32
280
     0
102
RTVSPost2010PropOp32
 70
     1
102
RTVSPost2010Prop33
280
     0
102
RTVSPost2010PropOp33
 70
     1
102
RTVSPost2010Prop34
280
     0
102
RTVSPost2010PropOp34
 70
     1
102
RTVSPost2010Prop35
280
     0
102
RTVSPost2010PropOp35
 70
     1
102
RTVSPost2010Prop36
280
     0
102
RTVSPost2010PropOp36
 70
     1
102
RTVSPost2010Prop37
 90
       50
102
RTVSPost2010PropOp37
 70
     1
102
RTVSPost2010Prop38
140
0.0
102
RTVSPost2010PropOp38
 70
     1
102
RTVSPost2010Prop39
140
1.0
102
RTVSPost2010PropOp39
 70
     1
102
RTVSPost2010Prop40
 90
        0
102
RTVSPost2010PropOp40
 70
     1
102
RTVSPost2010Prop41ColorIndex
 90
       18
102
RTVSPost2010Prop41ColorRGB
 90
        0
102
RTVSPost2010PropOp41
 70
     1
102
RTVSPost2010Prop42
 90
       50
102
RTVSPost2010PropOp42
 70
     1
102
RTVSPost2010Prop43
 90
        3
102
RTVSPost2010PropOp43
 70
     1
102
RTVSPost2010Prop44ColorIndex
 90
        5
102
RTVSPost2010Prop44ColorRGB
 90
      255
102
RTVSPost2010PropOp44
 70
     1
102
RTVSPost2010Prop45
280
     0
102
RTVSPost2010PropOp45
 70
     1
102
RTVSPost2010Prop46
 90
       50
102
RTVSPost2010PropOp46
 70
     1
102
RTVSPost2010Prop47
 90
       50
102
RTVSPost2010PropOp47
 70
     1
102
RTVSPost2010Prop48
 90
       50
102
RTVSPost2010PropOp48
 70
     1
102
RTVSPost2010Prop49
280
     0
102
RTVSPost2010PropOp49
 70
     1
102
RTVSPost2010Prop50
 90
       50
102
RTVSPost2010PropOp50
 70
     1
102
RTVSPost2010Prop51ColorIndex
 90
      256
102
RTVSPost2010Prop51ColorRGB
 90
-16777216
102
RTVSPost2010PropOp51
 70
     0
102
RTVSPost2010Prop52
140
1.0
102
RTVSPost2010PropOp52
 70
     0
102
RTVSPost2010Prop53
 90
        2
102
RTVSPost2010PropOp53
 70
     1
102
RTVSPost2010Prop54
  1
strokes_ogs.tif
102
RTVSPost2010PropOp54
 70
     1
102
RTVSPost2010Prop55
280
     0
102
RTVSPost2010PropOp55
 70
     1
102
RTVSPost2010Prop56
140
1.0
102
RTVSPost2010PropOp56
 70
     1
102
RTVSPost2010Prop57
140
1.0
102
RTVSPost2010PropOp57
 70
     1
  0
XRECORD
  5
C20
102
{ACAD_REACTORS
330
C1F
102
}
330
C1F
100
AcDbXrecord
280
     1
102
RTVSPost2010Prop28
280
     0
102
RTVSPost2010PropOp28
 70
     1
102
RTVSPost2010Prop29
280
     1
102
RTVSPost2010PropOp29
 70
     1
102
RTVSPost2010Prop30
280
     1
102
RTVSPost2010PropOp30
 70
     1
102
RTVSPost2010Prop31
280
     0
102
RTVSPost2010PropOp31
 70
     1
102
RTVSPost2010Prop32
280
     0
102
RTVSPost2010PropOp32
 70
     1
102
RTVSPost2010Prop33
280
     0
102
RTVSPost2010PropOp33
 70
     1
102
RTVSPost2010Prop34
280
     0
102
RTVSPost2010PropOp34
 70
     1
102
RTVSPost2010Prop35
280
     0
102
RTVSPost2010PropOp35
 70
     1
102
RTVSPost2010Prop36
280
     0
102
RTVSPost2010PropOp36
 70
     1
102
RTVSPost2010Prop37
 90
       50
102
RTVSPost2010PropOp37
 70
     1
102
RTVSPost2010Prop38
140
0.0
102
RTVSPost2010PropOp38
 70
     1
102
RTVSPost2010Prop39
140
1.0
102
RTVSPost2010PropOp39
 70
     1
102
RTVSPost2010Prop40
 90
        0
102
RTVSPost2010PropOp40
 70
     1
102
RTVSPost2010Prop41ColorIndex
 90
       18
102
RTVSPost2010Prop41ColorRGB
 90
        0
102
RTVSPost2010PropOp41
 70
     1
102
RTVSPost2010Prop42
 90
       50
102
RTVSPost2010PropOp42
 70
     1
102
RTVSPost2010Prop43
 90
        3
102
RTVSPost2010PropOp43
 70
     1
102
RTVSPost2010Prop44ColorIndex
 90
        5
102
RTVSPost2010Prop44ColorRGB
 90
      255
102
RTVSPost2010PropOp44
 70
     1
102
RTVSPost2010Prop45
280
     0
102
RTVSPost2010PropOp45
 70
     1
102
RTVSPost2010Prop46
 90
       50
102
RTVSPost2010PropOp46
 70
     1
102
RTVSPost2010Prop47
 90
       50
102
RTVSPost2010PropOp47
 70
     1
102
RTVSPost2010Prop48
 90
       50
102
RTVSPost2010PropOp48
 70
     1
102
RTVSPost2010Prop49
280
     0
102
RTVSPost2010PropOp49
 70
     1
102
RTVSPost2010Prop50
 90
       50
102
RTVSPost2010PropOp50
 70
     1
102
RTVSPost2010Prop51ColorIndex
 90
      256
102
RTVSPost2010Prop51ColorRGB
 90
-16777216
102
RTVSPost2010PropOp51
 70
     0
102
RTVSPost2010Prop52
140
1.0
102
RTVSPost2010PropOp52
 70
     0
102
RTVSPost2010Prop53
 90
        2
102
RTVSPost2010PropOp53
 70
     1
102
RTVSPost2010Prop54
  1
strokes_ogs.tif
102
RTVSPost2010PropOp54
 70
     1
102
RTVSPost2010Prop55
280
     0
102
RTVSPost2010PropOp55
 70
     1
102
RTVSPost2010Prop56
140
1.0
102
RTVSPost2010PropOp56
 70
     1
102
RTVSPost2010Prop57
140
1.0
102
RTVSPost2010PropOp57
 70
     1
  0
XRECORD
  5
C0C
102
{ACAD_REACTORS
330
C0B
102
}
330
C0B
100
AcDbXrecord
280
     1
102
RTVSPost2010Prop28
280
     0
102
RTVSPost2010PropOp28
 70
     1
102
RTVSPost2010Prop29
280
     1
102
RTVSPost2010PropOp29
 70
     1
102
RTVSPost2010Prop30
280
     1
102
RTVSPost2010PropOp30
 70
     1
102
RTVSPost2010Prop31
280
     0
102
RTVSPost2010PropOp31
 70
     1
102
RTVSPost2010Prop32
280
     0
102
RTVSPost2010PropOp32
 70
     1
102
RTVSPost2010Prop33
280
     0
102
RTVSPost2010PropOp33
 70
     1
102
RTVSPost2010Prop34
280
     0
102
RTVSPost2010PropOp34
 70
     1
102
RTVSPost2010Prop35
280
     0
102
RTVSPost2010PropOp35
 70
     1
102
RTVSPost2010Prop36
280
     0
102
RTVSPost2010PropOp36
 70
     1
102
RTVSPost2010Prop37
 90
       50
102
RTVSPost2010PropOp37
 70
     1
102
RTVSPost2010Prop38
140
0.0
102
RTVSPost2010PropOp38
 70
     1
102
RTVSPost2010Prop39
140
1.0
102
RTVSPost2010PropOp39
 70
     1
102
RTVSPost2010Prop40
 90
        0
102
RTVSPost2010PropOp40
 70
     1
102
RTVSPost2010Prop41ColorIndex
 90
       18
102
RTVSPost2010Prop41ColorRGB
 90
        0
102
RTVSPost2010PropOp41
 70
     1
102
RTVSPost2010Prop42
 90
       50
102
RTVSPost2010PropOp42
 70
     1
102
RTVSPost2010Prop43
 90
        3
102
RTVSPost2010PropOp43
 70
     1
102
RTVSPost2010Prop44ColorIndex
 90
        5
102
RTVSPost2010Prop44ColorRGB
 90
      255
102
RTVSPost2010PropOp44
 70
     1
102
RTVSPost2010Prop45
280
     0
102
RTVSPost2010PropOp45
 70
     1
102
RTVSPost2010Prop46
 90
       50
102
RTVSPost2010PropOp46
 70
     1
102
RTVSPost2010Prop47
 90
       50
102
RTVSPost2010PropOp47
 70
     1
102
RTVSPost2010Prop48
 90
       50
102
RTVSPost2010PropOp48
 70
     1
102
RTVSPost2010Prop49
280
     0
102
RTVSPost2010PropOp49
 70
     1
102
RTVSPost2010Prop50
 90
       50
102
RTVSPost2010PropOp50
 70
     1
102
RTVSPost2010Prop51ColorIndex
 90
      256
102
RTVSPost2010Prop51ColorRGB
 90
-16777216
102
RTVSPost2010PropOp51
 70
     0
102
RTVSPost2010Prop52
140
1.0
102
RTVSPost2010PropOp52
 70
     0
102
RTVSPost2010Prop53
 90
        2
102
RTVSPost2010PropOp53
 70
     1
102
RTVSPost2010Prop54
  1
strokes_ogs.tif
102
RTVSPost2010PropOp54
 70
     1
102
RTVSPost2010Prop55
280
     0
102
RTVSPost2010PropOp55
 70
     1
102
RTVSPost2010Prop56
140
1.0
102
RTVSPost2010PropOp56
 70
     1
102
RTVSPost2010Prop57
140
1.0
102
RTVSPost2010PropOp57
 70
     1
  0
XRECORD
  5
C14
102
{ACAD_REACTORS
330
C13
102
}
330
C13
100
AcDbXrecord
280
     1
102
RTVSPost2010Prop28
280
     0
102
RTVSPost2010PropOp28
 70
     1
102
RTVSPost2010Prop29
280
     1
102
RTVSPost2010PropOp29
 70
     1
102
RTVSPost2010Prop30
280
     1
102
RTVSPost2010PropOp30
 70
     1
102
RTVSPost2010Prop31
280
     0
102
RTVSPost2010PropOp31
 70
     1
102
RTVSPost2010Prop32
280
     0
102
RTVSPost2010PropOp32
 70
     1
102
RTVSPost2010Prop33
280
     0
102
RTVSPost2010PropOp33
 70
     1
102
RTVSPost2010Prop34
280
     0
102
RTVSPost2010PropOp34
 70
     1
102
RTVSPost2010Prop35
280
     0
102
RTVSPost2010PropOp35
 70
     1
102
RTVSPost2010Prop36
280
     0
102
RTVSPost2010PropOp36
 70
     1
102
RTVSPost2010Prop37
 90
       50
102
RTVSPost2010PropOp37
 70
     1
102
RTVSPost2010Prop38
140
0.0
102
RTVSPost2010PropOp38
 70
     1
102
RTVSPost2010Prop39
140
1.0
102
RTVSPost2010PropOp39
 70
     1
102
RTVSPost2010Prop40
 90
        0
102
RTVSPost2010PropOp40
 70
     1
102
RTVSPost2010Prop41ColorIndex
 90
       18
102
RTVSPost2010Prop41ColorRGB
 90
        0
102
RTVSPost2010PropOp41
 70
     1
102
RTVSPost2010Prop42
 90
       50
102
RTVSPost2010PropOp42
 70
     1
102
RTVSPost2010Prop43
 90
        3
102
RTVSPost2010PropOp43
 70
     1
102
RTVSPost2010Prop44ColorIndex
 90
        5
102
RTVSPost2010Prop44ColorRGB
 90
      255
102
RTVSPost2010PropOp44
 70
     1
102
RTVSPost2010Prop45
280
     0
102
RTVSPost2010PropOp45
 70
     1
102
RTVSPost2010Prop46
 90
       50
102
RTVSPost2010PropOp46
 70
     1
102
RTVSPost2010Prop47
 90
       50
102
RTVSPost2010PropOp47
 70
     1
102
RTVSPost2010Prop48
 90
       50
102
RTVSPost2010PropOp48
 70
     1
102
RTVSPost2010Prop49
280
     0
102
RTVSPost2010PropOp49
 70
     1
102
RTVSPost2010Prop50
 90
       50
102
RTVSPost2010PropOp50
 70
     1
102
RTVSPost2010Prop51ColorIndex
 90
      256
102
RTVSPost2010Prop51ColorRGB
 90
-16777216
102
RTVSPost2010PropOp51
 70
     0
102
RTVSPost2010Prop52
140
1.0
102
RTVSPost2010PropOp52
 70
     0
102
RTVSPost2010Prop53
 90
        2
102
RTVSPost2010PropOp53
 70
     1
102
RTVSPost2010Prop54
  1
strokes_ogs.tif
102
RTVSPost2010PropOp54
 70
     1
102
RTVSPost2010Prop55
280
     0
102
RTVSPost2010PropOp55
 70
     1
102
RTVSPost2010Prop56
140
1.0
102
RTVSPost2010PropOp56
 70
     1
102
RTVSPost2010Prop57
140
1.0
102
RTVSPost2010PropOp57
 70
     1
  0
XRECORD
  5
C22
102
{ACAD_REACTORS
330
C21
102
}
330
C21
100
AcDbXrecord
280
     1
102
RTVSPost2010Prop28
280
     0
102
RTVSPost2010PropOp28
 70
     1
102
RTVSPost2010Prop29
280
     1
102
RTVSPost2010PropOp29
 70
     1
102
RTVSPost2010Prop30
280
     1
102
RTVSPost2010PropOp30
 70
     1
102
RTVSPost2010Prop31
280
     0
102
RTVSPost2010PropOp31
 70
     1
102
RTVSPost2010Prop32
280
     0
102
RTVSPost2010PropOp32
 70
     1
102
RTVSPost2010Prop33
280
     0
102
RTVSPost2010PropOp33
 70
     1
102
RTVSPost2010Prop34
280
     0
102
RTVSPost2010PropOp34
 70
     1
102
RTVSPost2010Prop35
280
     0
102
RTVSPost2010PropOp35
 70
     1
102
RTVSPost2010Prop36
280
     0
102
RTVSPost2010PropOp36
 70
     1
102
RTVSPost2010Prop37
 90
       50
102
RTVSPost2010PropOp37
 70
     1
102
RTVSPost2010Prop38
140
0.0
102
RTVSPost2010PropOp38
 70
     1
102
RTVSPost2010Prop39
140
1.0
102
RTVSPost2010PropOp39
 70
     1
102
RTVSPost2010Prop40
 90
        0
102
RTVSPost2010PropOp40
 70
     1
102
RTVSPost2010Prop41ColorIndex
 90
       18
102
RTVSPost2010Prop41ColorRGB
 90
        0
102
RTVSPost2010PropOp41
 70
     1
102
RTVSPost2010Prop42
 90
       50
102
RTVSPost2010PropOp42
 70
     1
102
RTVSPost2010Prop43
 90
        3
102
RTVSPost2010PropOp43
 70
     1
102
RTVSPost2010Prop44ColorIndex
 90
        5
102
RTVSPost2010Prop44ColorRGB
 90
      255
102
RTVSPost2010PropOp44
 70
     1
102
RTVSPost2010Prop45
280
     0
102
RTVSPost2010PropOp45
 70
     1
102
RTVSPost2010Prop46
 90
       50
102
RTVSPost2010PropOp46
 70
     1
102
RTVSPost2010Prop47
 90
       50
102
RTVSPost2010PropOp47
 70
     1
102
RTVSPost2010Prop48
 90
       50
102
RTVSPost2010PropOp48
 70
     1
102
RTVSPost2010Prop49
280
     0
102
RTVSPost2010PropOp49
 70
     1
102
RTVSPost2010Prop50
 90
       50
102
RTVSPost2010PropOp50
 70
     1
102
RTVSPost2010Prop51ColorIndex
 90
      256
102
RTVSPost2010Prop51ColorRGB
 90
-16777216
102
RTVSPost2010PropOp51
 70
     0
102
RTVSPost2010Prop52
140
1.0
102
RTVSPost2010PropOp52
 70
     0
102
RTVSPost2010Prop53
 90
        2
102
RTVSPost2010PropOp53
 70
     1
102
RTVSPost2010Prop54
  1
strokes_ogs.tif
102
RTVSPost2010PropOp54
 70
     1
102
RTVSPost2010Prop55
280
     0
102
RTVSPost2010PropOp55
 70
     1
102
RTVSPost2010Prop56
140
1.0
102
RTVSPost2010PropOp56
 70
     1
102
RTVSPost2010Prop57
140
1.0
102
RTVSPost2010PropOp57
 70
     1
  0
ENDSEC
  0
EOF
